  0
SECTION
  2
HEADER
  9
$ACADVER
  1
AC1015
  9
$ACADMAINTVER
 70
    20
  9
$DWGCODEPAGE
  3
ANSI_1250
  9
$INSBASE
 10
0.0
 20
0.0
 30
0.0
  9
$EXTMIN
 10
14555.02990592855
 20
2190.065412097689
 30
0.0
  9
$EXTMAX
 10
16852.59700923456
 20
3762.517211152158
 30
0.0000000000000152
  9
$LIMMIN
 10
0.0
 20
0.0
  9
$LIMMAX
 10
420.0
 20
297.0
  9
$ORTHOMODE
 70
     1
  9
$REGENMODE
 70
     1
  9
$FILLMODE
 70
     1
  9
$QTEXTMODE
 70
     0
  9
$MIRRTEXT
 70
     0
  9
$LTSCALE
 40
35.0
  9
$ATTMODE
 70
     1
  9
$TEXTSIZE
 40
2.5
  9
$TRACEWID
 40
1.0
  9
$TEXTSTYLE
  7
Standard
  9
$CLAYER
  8
0
  9
$CELTYPE
  6
ByLayer
  9
$CECOLOR
 62
     8
  9
$CELTSCALE
 40
1.0
  9
$DISPSILH
 70
     0
  9
$DIMSCALE
 40
8.0
  9
$DIMASZ
 40
3.0
  9
$DIMEXO
 40
0.0625
  9
$DIMDLI
 40
0.38
  9
$DIMRND
 40
0.0
  9
$DIMDLE
 40
0.0
  9
$DIMEXE
 40
0.18
  9
$DIMTP
 40
0.0
  9
$DIMTM
 40
0.0
  9
$DIMTXT
 40
3.5
  9
$DIMCEN
 40
0.0
  9
$DIMTSZ
 40
0.0
  9
$DIMTOL
 70
     0
  9
$DIMLIM
 70
     0
  9
$DIMTIH
 70
     0
  9
$DIMTOH
 70
     0
  9
$DIMSE1
 70
     0
  9
$DIMSE2
 70
     0
  9
$DIMTAD
 70
     0
  9
$DIMZIN
 70
     0
  9
$DIMBLK
  1

  9
$DIMASO
 70
     1
  9
$DIMSHO
 70
     1
  9
$DIMPOST
  1

  9
$DIMAPOST
  1

  9
$DIMALT
 70
     0
  9
$DIMALTD
 70
     2
  9
$DIMALTF
 40
25.4
  9
$DIMLFAC
 40
1.0
  9
$DIMTOFL
 70
     1
  9
$DIMTVP
 40
0.0
  9
$DIMTIX
 70
     0
  9
$DIMSOXD
 70
     0
  9
$DIMSAH
 70
     0
  9
$DIMBLK1
  1

  9
$DIMBLK2
  1

  9
$DIMSTYLE
  2
STANDARD
  9
$DIMCLRD
 70
     8
  9
$DIMCLRE
 70
     8
  9
$DIMCLRT
 70
     9
  9
$DIMTFAC
 40
1.0
  9
$DIMGAP
 40
0.09
  9
$DIMJUST
 70
     0
  9
$DIMSD1
 70
     0
  9
$DIMSD2
 70
     0
  9
$DIMTOLJ
 70
     1
  9
$DIMTZIN
 70
     0
  9
$DIMALTZ
 70
     0
  9
$DIMALTTZ
 70
     0
  9
$DIMUPT
 70
     0
  9
$DIMDEC
 70
     0
  9
$DIMTDEC
 70
     0
  9
$DIMALTU
 70
     2
  9
$DIMALTTD
 70
     2
  9
$DIMTXSTY
  7
Standard
  9
$DIMAUNIT
 70
     0
  9
$DIMADEC
 70
     0
  9
$DIMALTRND
 40
0.0
  9
$DIMAZIN
 70
     0
  9
$DIMDSEP
 70
    46
  9
$DIMATFIT
 70
     3
  9
$DIMFRAC
 70
     0
  9
$DIMLDRBLK
  1

  9
$DIMLUNIT
 70
     2
  9
$DIMLWD
 70
    -2
  9
$DIMLWE
 70
    -2
  9
$DIMTMOVE
 70
     0
  9
$LUNITS
 70
     2
  9
$LUPREC
 70
     4
  9
$SKETCHINC
 40
1.0
  9
$FILLETRAD
 40
10.0
  9
$AUNITS
 70
     0
  9
$AUPREC
 70
     0
  9
$MENU
  1
.
  9
$ELEVATION
 40
0.0
  9
$PELEVATION
 40
0.0
  9
$THICKNESS
 40
0.0
  9
$LIMCHECK
 70
     0
  9
$CHAMFERA
 40
0.0
  9
$CHAMFERB
 40
0.0
  9
$CHAMFERC
 40
0.0
  9
$CHAMFERD
 40
0.0
  9
$SKPOLY
 70
     0
  9
$TDCREATE
 40
2455421.559696424
  9
$TDUCREATE
 40
2455421.518029757
  9
$TDUPDATE
 40
2457709.414171458
  9
$TDUUPDATE
 40
2457709.372504792
  9
$TDINDWG
 40
2.6241917014
  9
$TDUSRTIMER
 40
2.6241913889
  9
$USRTIMER
 70
     1
  9
$ANGBASE
 50
0.0
  9
$ANGDIR
 70
     0
  9
$PDMODE
 70
     0
  9
$PDSIZE
 40
0.0
  9
$PLINEWID
 40
0.0
  9
$SPLFRAME
 70
     0
  9
$SPLINETYPE
 70
     6
  9
$SPLINESEGS
 70
     8
  9
$HANDSEED
  5
1041B
  9
$SURFTAB1
 70
     6
  9
$SURFTAB2
 70
     6
  9
$SURFTYPE
 70
     6
  9
$SURFU
 70
     6
  9
$SURFV
 70
     6
  9
$UCSBASE
  2

  9
$UCSNAME
  2

  9
$UCSORG
 10
0.0
 20
0.0
 30
0.0
  9
$UCSXDIR
 10
1.0
 20
0.0
 30
0.0
  9
$UCSYDIR
 10
0.0
 20
1.0
 30
0.0
  9
$UCSORTHOREF
  2

  9
$UCSORTHOVIEW
 70
     0
  9
$UCSORGTOP
 10
0.0
 20
0.0
 30
0.0
  9
$UCSORGBOTTOM
 10
0.0
 20
0.0
 30
0.0
  9
$UCSORGLEFT
 10
0.0
 20
0.0
 30
0.0
  9
$UCSORGRIGHT
 10
0.0
 20
0.0
 30
0.0
  9
$UCSORGFRONT
 10
0.0
 20
0.0
 30
0.0
  9
$UCSORGBACK
 10
0.0
 20
0.0
 30
0.0
  9
$PUCSBASE
  2

  9
$PUCSNAME
  2

  9
$PUCSORG
 10
0.0
 20
0.0
 30
0.0
  9
$PUCSXDIR
 10
1.0
 20
0.0
 30
0.0
  9
$PUCSYDIR
 10
0.0
 20
1.0
 30
0.0
  9
$PUCSORTHOREF
  2

  9
$PUCSORTHOVIEW
 70
     0
  9
$PUCSORGTOP
 10
0.0
 20
0.0
 30
0.0
  9
$PUCSORGBOTTOM
 10
0.0
 20
0.0
 30
0.0
  9
$PUCSORGLEFT
 10
0.0
 20
0.0
 30
0.0
  9
$PUCSORGRIGHT
 10
0.0
 20
0.0
 30
0.0
  9
$PUCSORGFRONT
 10
0.0
 20
0.0
 30
0.0
  9
$PUCSORGBACK
 10
0.0
 20
0.0
 30
0.0
  9
$USERI1
 70
     0
  9
$USERI2
 70
     0
  9
$USERI3
 70
     0
  9
$USERI4
 70
     0
  9
$USERI5
 70
     0
  9
$USERR1
 40
0.0
  9
$USERR2
 40
0.0
  9
$USERR3
 40
0.0
  9
$USERR4
 40
0.0
  9
$USERR5
 40
0.0
  9
$WORLDVIEW
 70
     1
  9
$SHADEDGE
 70
     3
  9
$SHADEDIF
 70
    70
  9
$TILEMODE
 70
     1
  9
$MAXACTVP
 70
    64
  9
$PINSBASE
 10
0.0
 20
0.0
 30
0.0
  9
$PLIMCHECK
 70
     0
  9
$PEXTMIN
 10
1.000000000000000E+20
 20
1.000000000000000E+20
 30
1.000000000000000E+20
  9
$PEXTMAX
 10
-1.000000000000000E+20
 20
-1.000000000000000E+20
 30
-1.000000000000000E+20
  9
$PLIMMIN
 10
0.0
 20
0.0
  9
$PLIMMAX
 10
420.0
 20
297.0
  9
$UNITMODE
 70
     0
  9
$VISRETAIN
 70
     1
  9
$PLINEGEN
 70
     0
  9
$PSLTSCALE
 70
     1
  9
$TREEDEPTH
 70
  3020
  9
$CMLSTYLE
  2
Standard
  9
$CMLJUST
 70
     0
  9
$CMLSCALE
 40
20.0
  9
$PROXYGRAPHICS
 70
     1
  9
$MEASUREMENT
 70
     1
  9
$CELWEIGHT
370
    -1
  9
$ENDCAPS
280
     0
  9
$JOINSTYLE
280
     0
  9
$LWDISPLAY
290
     0
  9
$INSUNITS
 70
     4
  9
$HYPERLINKBASE
  1

  9
$STYLESHEET
  1
ACAD A4.CTB
  9
$XEDIT
290
     1
  9
$CEPSNTYPE
380
     0
  9
$PSTYLEMODE
290
     1
  9
$FINGERPRINTGUID
  2
{D57E1DBE-A899-45ED-8992-2F9B574313B0}
  9
$VERSIONGUID
  2
{8D22F9FB-6FAA-46A5-A49F-04EF17A264EB}
  9
$EXTNAMES
290
     1
  9
$PSVPSCALE
 40
0.0
  9
$OLESTARTUP
290
     0
  0
ENDSEC
  0
SECTION
  2
CLASSES
  0
CLASS
  1
ACDBDICTIONARYWDFLT
  2
AcDbDictionaryWithDefault
  3
ObjectDBX Classes
 90
        0
280
     0
281
     0
  0
CLASS
  1
MATERIAL
  2
AcDbMaterial
  3
ObjectDBX Classes
 90
     1153
280
     0
281
     0
  0
CLASS
  1
VISUALSTYLE
  2
AcDbVisualStyle
  3
ObjectDBX Classes
 90
     4095
280
     0
281
     0
  0
CLASS
  1
SCALE
  2
AcDbScale
  3
ObjectDBX Classes
 90
     1153
280
     0
281
     0
  0
CLASS
  1
TABLESTYLE
  2
AcDbTableStyle
  3
ObjectDBX Classes
 90
     4095
280
     0
281
     0
  0
CLASS
  1
MLEADERSTYLE
  2
AcDbMLeaderStyle
  3
ACDB_MLEADERSTYLE_CLASS
 90
     4095
280
     0
281
     0
  0
CLASS
  1
SORTENTSTABLE
  2
AcDbSortentsTable
  3
ObjectDBX Classes
 90
        0
280
     0
281
     0
  0
CLASS
  1
DBCOLOR
  2
AcDbColor
  3
ObjectDBX Classes
 90
        0
280
     0
281
     0
  0
CLASS
  1
CELLSTYLEMAP
  2
AcDbCellStyleMap
  3
ObjectDBX Classes
 90
     1152
280
     0
281
     0
  0
CLASS
  1
DICTIONARYVAR
  2
AcDbDictionaryVar
  3
ObjectDBX Classes
 90
        0
280
     0
281
     0
  0
CLASS
  1
ACDBPLACEHOLDER
  2
AcDbPlaceHolder
  3
ObjectDBX Classes
 90
        0
280
     0
281
     0
  0
CLASS
  1
LAYOUT
  2
AcDbLayout
  3
ObjectDBX Classes
 90
        0
280
     0
281
     0
  0
CLASS
  1
EXACTERMXREFMAP
  2
ExAcTermXrefMap
  3
EXAC_SERVICE
 90
    33793
280
     0
281
     0
  0
CLASS
  1
NPOCOLLECTION
  2
AcDbImpNonPersistentObjectsCollection
  3
ObjectDBX Classes
 90
    33921
280
     0
281
     0
  0
CLASS
  1
DIMASSOC
  2
AcDbDimAssoc
  3
"AcDbDimAssoc|Product Desc:     AcDim ARX App For Dimension|Company:          Autodesk, Inc.|WEB Address:      www.autodesk.com"
 90
        0
280
     0
281
     0
  0
CLASS
  1
ACDB_TEXTOBJECTCONTEXTDATA_CLASS
  2
AcDbTextObjectContextData
  3
ObjectDBX Classes
 90
    33921
280
     0
281
     0
  0
CLASS
  1
EXACXREFPANELOBJECT
  2
ExAcXREFPanelObject
  3
EXAC_ESW
 90
    33793
280
     0
281
     0
  0
CLASS
  1
ACDBSECTIONVIEWSTYLE
  2
AcDbSectionViewStyle
  3
ObjectDBX Classes
 90
     1025
280
     0
281
     0
  0
CLASS
  1
ACDBDETAILVIEWSTYLE
  2
AcDbDetailViewStyle
  3
ObjectDBX Classes
 90
     1025
280
     0
281
     0
  0
CLASS
  1
SOLID_BACKGROUND
  2
AcDbSolidBackground
  3
SCENEOE
 90
    36863
280
     0
281
     0
  0
CLASS
  1
PLOTSETTINGS
  2
AcDbPlotSettings
  3
ObjectDBX Classes
 90
        0
280
     0
281
     0
  0
ENDSEC
  0
SECTION
  2
TABLES
  0
TABLE
  2
VPORT
  5
8
102
{ACAD_XDICTIONARY
360
10A
102
}
330
0
100
AcDbSymbolTable
 70
     1
  0
VPORT
  5
5F
330
8
100
AcDbSymbolTableRecord
100
AcDbViewportTableRecord
  2
*Active
 70
     0
 10
0.0
 20
0.0
 11
1.0
 21
1.0
 12
-3417.883804708472
 22
-2392.06425777056
 13
0.0
 23
0.0
 14
10.0
 24
10.0
 15
10.0
 25
10.0
 16
-0.000000000007276
 26
0.0
 36
30812.70755905226
 17
19121.69726229003
 27
5368.355569395484
 37
0.0
 40
1583.246662663538
 41
2.072164948453608
 42
50.0
 43
0.0
 44
0.0
 50
0.0
 51
0.0
 71
     0
 72
  1000
 73
     1
 74
     2
 75
     0
 76
     0
 77
     0
 78
     2
281
     0
 65
     1
110
0.0
120
0.0
130
0.0
111
1.0
121
0.0
131
0.0
112
0.0
122
1.0
132
0.0
 79
     0
146
0.0
1001
ACAD_NAV_VCDISPLAY
1070
     3
  0
ENDTAB
  0
TABLE
  2
LTYPE
  5
5
330
0
100
AcDbSymbolTable
 70
     3
  0
LTYPE
  5
63
330
5
100
AcDbSymbolTableRecord
100
AcDbLinetypeTableRecord
  2
ByBlock
 70
     0
  3

 72
    65
 73
     0
 40
0.0
  0
LTYPE
  5
64
330
5
100
AcDbSymbolTableRecord
100
AcDbLinetypeTableRecord
  2
ByLayer
 70
     0
  3

 72
    65
 73
     0
 40
0.0
  0
LTYPE
  5
65
330
5
100
AcDbSymbolTableRecord
100
AcDbLinetypeTableRecord
  2
Continuous
 70
     0
  3
Solid line
 72
    65
 73
     0
 40
0.0
  0
LTYPE
  5
615
330
5
100
AcDbSymbolTableRecord
100
AcDbLinetypeTableRecord
  2
CENTER
 70
     0
  3
____ _ ____ _ ____ _ ____ _ ____ _ ____ _ ____
 72
    65
 73
     4
 40
2.0
 49
1.25
 74
     0
 49
-0.25
 74
     0
 49
0.25
 74
     0
 49
-0.25
 74
     0
  0
LTYPE
  5
1AA6
330
5
100
AcDbSymbolTableRecord
100
AcDbLinetypeTableRecord
  2
HIDDEN
 70
     0
  3
_ _ _ _ _ _ _ _ _ _ _ _ _ _ _ _ _ _ _ _ _ _ _
 72
    65
 73
     2
 40
0.375
 49
0.25
 74
     0
 49
-0.125
 74
     0
  0
ENDTAB
  0
TABLE
  2
LAYER
  5
2
102
{ACAD_XDICTIONARY
360
86
102
}
330
0
100
AcDbSymbolTable
 70
     7
  0
LAYER
  5
5C
102
{ACAD_XDICTIONARY
360
FE
102
}
330
2
100
AcDbSymbolTableRecord
100
AcDbLayerTableRecord
  2
0
 70
     0
 62
     7
  6
Continuous
370
    -3
390
F
  0
LAYER
  5
616
330
2
100
AcDbSymbolTableRecord
100
AcDbLayerTableRecord
  2
Defpoints
 70
     0
 62
     7
  6
Continuous
290
     0
370
    -3
390
F
  0
LAYER
  5
617
330
2
100
AcDbSymbolTableRecord
100
AcDbLayerTableRecord
  2
KOTA
 70
     0
 62
     3
  6
Continuous
370
     9
390
F
  0
LAYER
  5
2DA7
330
2
100
AcDbSymbolTableRecord
100
AcDbLayerTableRecord
  2
3
 70
     0
 62
     1
  6
Continuous
370
    -3
390
F
  0
LAYER
  5
2DA9
330
2
100
AcDbSymbolTableRecord
100
AcDbLayerTableRecord
  2
IZREZ
 70
     0
 62
     7
  6
Continuous
370
     9
390
F
  0
LAYER
  5
96D1
330
2
100
AcDbSymbolTableRecord
100
AcDbLayerTableRecord
  2
izrez dim
 70
     0
 62
     1
  6
Continuous
370
    -3
390
F
1001
AcAecLayerStandard
1000

1000

  0
ENDTAB
  0
TABLE
  2
STYLE
  5
3
330
0
100
AcDbSymbolTable
 70
     4
  0
STYLE
  5
5D
330
3
100
AcDbSymbolTableRecord
100
AcDbTextStyleTableRecord
  2
Standard
 70
     0
 40
0.0
 41
1.0
 50
0.0
 71
     0
 42
2.5
  3
calibril.ttf
  4

1001
ACAD
1000
Calibri Light
1071
       34
  0
STYLE
  5
1707
330
3
100
AcDbSymbolTableRecord
100
AcDbTextStyleTableRecord
  2
USER1
 70
     0
 40
0.0
 41
1.0
 50
0.0
 71
     0
 42
0.2
  3
calibril.ttf
  4

1001
ACAD
1000
Calibri Light
1071
       34
  0
STYLE
  5
9CD2
330
3
100
AcDbSymbolTableRecord
100
AcDbTextStyleTableRecord
  2
Text Style14
 70
     0
 40
0.0
 41
1.0
 50
0.0
 71
     0
 42
0.2
  3
calibril.ttf
  4

1001
ACAD
1000
Calibri Light
1071
       34
  0
STYLE
  5
E81B
330
3
100
AcDbSymbolTableRecord
100
AcDbTextStyleTableRecord
  2
style2
 70
     0
 40
0.0
 41
1.0
 50
0.0
 71
     0
 42
7.0
  3
calibril.ttf
  4

1001
ACAD
1000
Calibri Light
1071
       34
  0
ENDTAB
  0
TABLE
  2
VIEW
  5
6
330
0
100
AcDbSymbolTable
 70
     0
  0
ENDTAB
  0
TABLE
  2
UCS
  5
7
330
0
100
AcDbSymbolTable
 70
     0
  0
ENDTAB
  0
TABLE
  2
APPID
  5
9
330
0
100
AcDbSymbolTable
 70
    35
  0
APPID
  5
5E
330
9
100
AcDbSymbolTableRecord
100
AcDbRegAppTableRecord
  2
ACAD
 70
     0
  0
APPID
  5
66
330
9
100
AcDbSymbolTableRecord
100
AcDbRegAppTableRecord
  2
AcadAnnotative
 70
     0
  0
APPID
  5
70
330
9
100
AcDbSymbolTableRecord
100
AcDbRegAppTableRecord
  2
ACAD_MLEADERVER
 70
     0
  0
APPID
  5
84
330
9
100
AcDbSymbolTableRecord
100
AcDbRegAppTableRecord
  2
ACAD_DSTYLE_DIMJAG
 70
     0
  0
APPID
  5
85
330
9
100
AcDbSymbolTableRecord
100
AcDbRegAppTableRecord
  2
ACAD_DSTYLE_DIMTALN
 70
     0
  0
APPID
  5
FB
330
9
100
AcDbSymbolTableRecord
100
AcDbRegAppTableRecord
  2
AcadAnnoPO
 70
     0
  0
APPID
  5
110
330
9
100
AcDbSymbolTableRecord
100
AcDbRegAppTableRecord
  2
ACAD_DSTYLE_DIMJOGGED_JOGANGLE_SYMBOL
 70
     0
  0
APPID
  5
61C
330
9
100
AcDbSymbolTableRecord
100
AcDbRegAppTableRecord
  2
GENIUS_GENODEF_13
 70
     0
  0
APPID
  5
61D
330
9
100
AcDbSymbolTableRecord
100
AcDbRegAppTableRecord
  2
GENIUS_GENOBJ-N-FIL_13
 70
     0
  0
APPID
  5
61E
330
9
100
AcDbSymbolTableRecord
100
AcDbRegAppTableRecord
  2
GENIUS_GENDTOL_13
 70
     0
  0
APPID
  5
61F
330
9
100
AcDbSymbolTableRecord
100
AcDbRegAppTableRecord
  2
AcAecLayerStandard
 70
     0
  0
APPID
  5
681
330
9
100
AcDbSymbolTableRecord
100
AcDbRegAppTableRecord
  2
MCAD_NO_VIS
 70
     0
  0
APPID
  5
682
330
9
100
AcDbSymbolTableRecord
100
AcDbRegAppTableRecord
  2
ACAD_TEMP_GRAPHIC
 70
     0
  0
APPID
  5
683
330
9
100
AcDbSymbolTableRecord
100
AcDbRegAppTableRecord
  2
DCO15
 70
     0
  0
APPID
  5
684
330
9
100
AcDbSymbolTableRecord
100
AcDbRegAppTableRecord
  2
AD_DRAW
 70
     0
  0
APPID
  5
685
330
9
100
AcDbSymbolTableRecord
100
AcDbRegAppTableRecord
  2
ACATTRIBSERVICES
 70
     0
  0
APPID
  5
686
330
9
100
AcDbSymbolTableRecord
100
AcDbRegAppTableRecord
  2
DESIGNERASSEMBLIES
 70
     0
  0
APPID
  5
687
330
9
100
AcDbSymbolTableRecord
100
AcDbRegAppTableRecord
  2
ACADM_DIM_EDIT
 70
     0
  0
APPID
  5
688
330
9
100
AcDbSymbolTableRecord
100
AcDbRegAppTableRecord
  2
AMDT_DM_ADJ
 70
     0
  0
APPID
  5
689
330
9
100
AcDbSymbolTableRecord
100
AcDbRegAppTableRecord
  2
ACAD_DSTYLE_DIMARC_LENGTH_SYMBOL
 70
     0
  0
APPID
  5
68A
330
9
100
AcDbSymbolTableRecord
100
AcDbRegAppTableRecord
  2
ACAD_PSEXT
 70
     0
  0
APPID
  5
1AAA
330
9
100
AcDbSymbolTableRecord
100
AcDbRegAppTableRecord
  2
GENIUS_GENREC_14
 70
     0
  0
APPID
  5
1AAB
330
9
100
AcDbSymbolTableRecord
100
AcDbRegAppTableRecord
  2
GENIUS_GENOBJ-N-REC_13
 70
     0
  0
APPID
  5
2ABA
330
9
100
AcDbSymbolTableRecord
100
AcDbRegAppTableRecord
  2
ACAD_DSTYLE_DIMINSPECT
 70
     0
  0
APPID
  5
2DAB
330
9
100
AcDbSymbolTableRecord
100
AcDbRegAppTableRecord
  2
GENIUS_GENFIL_13
 70
     0
  0
APPID
  5
2DAC
330
9
100
AcDbSymbolTableRecord
100
AcDbRegAppTableRecord
  2
GENIUS_GENOBJ-N-CHA_13
 70
     0
  0
APPID
  5
2DAD
330
9
100
AcDbSymbolTableRecord
100
AcDbRegAppTableRecord
  2
GENIUS_GENOBJ-N-HTC_13
 70
     0
  0
APPID
  5
2DAE
330
9
100
AcDbSymbolTableRecord
100
AcDbRegAppTableRecord
  2
GENIUS_GENHATCH_13
 70
     0
  0
APPID
  5
41C8
330
9
100
AcDbSymbolTableRecord
100
AcDbRegAppTableRecord
  2
ACAD_DSTYLE_DIMRADIAL_EXTENSION
 70
     0
  0
APPID
  5
B97A
330
9
100
AcDbSymbolTableRecord
100
AcDbRegAppTableRecord
  2
ACAD_EXEMPT_FROM_CAD_STANDARDS
 70
     0
  0
APPID
  5
D7F2
330
9
100
AcDbSymbolTableRecord
100
AcDbRegAppTableRecord
  2
ACAD_NAV_VCDISPLAY
 70
     0
  0
APPID
  5
D881
330
9
100
AcDbSymbolTableRecord
100
AcDbRegAppTableRecord
  2
AcCmTransparency
 70
     0
  0
APPID
  5
EB1E
330
9
100
AcDbSymbolTableRecord
100
AcDbRegAppTableRecord
  2
GradientColor1ACI
 70
     0
  0
APPID
  5
EB1F
330
9
100
AcDbSymbolTableRecord
100
AcDbRegAppTableRecord
  2
GradientColor2ACI
 70
     0
  0
APPID
  5
F198
330
9
100
AcDbSymbolTableRecord
100
AcDbRegAppTableRecord
  2
AcadAnnoMonitorAlertIconDisabled
 70
     0
  0
ENDTAB
  0
TABLE
  2
DIMSTYLE
  5
A
330
0
100
AcDbSymbolTable
 70
     1
100
AcDbDimStyleTable
 71
     1
340
83
  0
DIMSTYLE
105
83
102
{ACAD_REACTORS
330
ADCB
330
ADCA
330
ADC9
330
ADCD
330
ADCC
330
ADD8
330
EC07
330
EC11
330
EC13
330
EC25
330
EC2A
330
EC3D
330
EC42
330
EC5C
330
EC60
330
10106
330
1011E
330
EC15
330
EC27
330
EC3A
330
EC45
330
EC59
330
EC61
102
}
330
A
100
AcDbSymbolTableRecord
100
AcDbDimStyleTableRecord
  2
STANDARD
 70
     0
 40
8.0
 41
3.0
 73
     0
 74
     0
140
3.5
141
0.0
172
     1
176
     8
177
     8
178
     9
271
     0
272
     0
340
5D
1001
ACAD_DSTYLE_DIMJAG
1070
   388
1040
1.5
1001
ACAD_DSTYLE_DIMTALN
1070
   392
1070
     0
  0
ENDTAB
  0
TABLE
  2
BLOCK_RECORD
  5
1
330
0
100
AcDbSymbolTable
 70
    23
  0
BLOCK_RECORD
  5
75
102
{ACAD_XDICTIONARY
360
13E9
102
}
330
1
100
AcDbSymbolTableRecord
100
AcDbBlockTableRecord
  2
*Model_Space
340
78
  0
BLOCK_RECORD
  5
71
330
1
100
AcDbSymbolTableRecord
100
AcDbBlockTableRecord
  2
*Paper_Space
340
74
  0
BLOCK_RECORD
  5
79
330
1
100
AcDbSymbolTableRecord
100
AcDbBlockTableRecord
  2
*Paper_Space0
340
7C
  0
BLOCK_RECORD
  5
2BAE
330
1
100
AcDbSymbolTableRecord
100
AcDbBlockTableRecord
  2
puša 8x14
340
0
310
2800000020000000200000000100080000000000000400000000000000000000000000000000000000000000000080000080000000808000800000008000800080800000C0C0C000C0DCC000F0CAA6000020400000206000002080000020A0000020C0000020E00000400000004020000040400000406000004080000040A0
310
000040C0000040E00000600000006020000060400000606000006080000060A0000060C0000060E00000800000008020000080400000806000008080000080A0000080C0000080E00000A0000000A0200000A0400000A0600000A0800000A0A00000A0C00000A0E00000C0000000C0200000C0400000C0600000C0800000C0
310
A00000C0C00000C0E00000E0000000E0200000E0400000E0600000E0800000E0A00000E0C00000E0E00040000000400020004000400040006000400080004000A0004000C0004000E00040200000402020004020400040206000402080004020A0004020C0004020E000404000004040200040404000404060004040800040
310
40A0004040C0004040E00040600000406020004060400040606000406080004060A0004060C0004060E00040800000408020004080400040806000408080004080A0004080C0004080E00040A0000040A0200040A0400040A0600040A0800040A0A00040A0C00040A0E00040C0000040C0200040C0400040C0600040C08000
310
40C0A00040C0C00040C0E00040E0000040E0200040E0400040E0600040E0800040E0A00040E0C00040E0E00080000000800020008000400080006000800080008000A0008000C0008000E00080200000802020008020400080206000802080008020A0008020C0008020E00080400000804020008040400080406000804080
310
008040A0008040C0008040E00080600000806020008060400080606000806080008060A0008060C0008060E00080800000808020008080400080806000808080008080A0008080C0008080E00080A0000080A0200080A0400080A0600080A0800080A0A00080A0C00080A0E00080C0000080C0200080C0400080C0600080C0
310
800080C0A00080C0C00080C0E00080E0000080E0200080E0400080E0600080E0800080E0A00080E0C00080E0E000C0000000C0002000C0004000C0006000C0008000C000A000C000C000C000E000C0200000C0202000C0204000C0206000C0208000C020A000C020C000C020E000C0400000C0402000C0404000C0406000C0
310
408000C040A000C040C000C040E000C0600000C0602000C0604000C0606000C0608000C060A000C060C000C060E000C0800000C0802000C0804000C0806000C0808000C080A000C080C000C080E000C0A00000C0A02000C0A04000C0A06000C0A08000C0A0A000C0A0C000C0A0E000C0C00000C0C02000C0C04000C0C06000
310
C0C08000C0C0A000F0FBFF00A4A0A000808080000000FF0000FF000000FFFF00FF000000FF00FF00FFFF0000FFFFFF0000000000000000000000000000000000000000000000000000000000000000000000000000000000FFFFFFFFFFFFFFFFF9FFFFFFFFFBF9FF000000000000000000000000000000FBFBFBFBFBFBFBFB
310
FBFB00000000F9FB00F90000000000000000000000000000FF0000000000000000F900000000FBFBF9FF0000000000000000000000000000FF0000000000000000F900000000FBF900FF0000000000000000000000000000FF0000000000000000F900000000F9FB00F90000000000000000000000000000FF000000000000
310
0000F900000000FBFBF9FF0000000000000000000000000000FF0000000000000000F900000000FBF900FF0000000000000000000000000000FF0000000000000000F900000000F9FB00F90000000000000000000000000000FF0000000000000000F900000000FBFBF9FF0000000000000000000000000000FF0000000000
310
000000F900000000FBF900FF0000000000000000000000000000FF0000000000000000F900000000F9FB00F90000000000000000000000000000FF0000000000000000F900000000FBFBF9FF0000000000000000000000000000FF0000000000000000F900000000FBF900FF0000000000000000000000000000FF00000000
310
000000FFF900000000F9FBFBF90000000000000000000000000000FF00000000000000FFF900000000FBFB00FF0000000000000000000000000000FF00000000000000FFF900000000FBFB00FF0000000000000000000000000000FF00000000000000FFF900000000FBFB00FF0000000000000000000000000000FF000000
310
00000000FFF900000000FBFB00FF0000000000000000000000000000FF00000000000000FFF9FBFBFBFBFBFB00FF0000000000000000000000000000FFFBFBFBFBFBFBFBFFF900000000FB0000FF0000000000000000000000000000FF00000000000000FFF900000000FB0000FF0000000000000000000000000000FF0000
310
0000000000FFF9000000FB000000FF0000000000000000000000000000FF00000000000000FFF9000000FB000000FF0000000000000000000000000000FBFBFBFBFBFBFBFBFFF9000000FB000000FF0000000000000000000000000000FF00000000000000FFF9000000FB000000FF0000000000000000000000000000FF00
310
000000000000FFF9000000FB000000FF0000000000000000000000000000FBFBFBFBFBFBFBFBFBF9000000FB000000FF000000000000000000000000000000FF000000000000FFF90000FB000000FF00000000000000000000000000000000FF000000000000FFF90000FB000000FF00000000000000000000000000000000
310
00FFFFFFFFFFFFFFF9FFFFFBFFFFFF0000000000000000000000000000000000000000000000000000000000000000000000000000000000
102
{BLKREFS
331
EBF3
102
}
1001
ACAD
1000
DesignCenter Data
1002
{
1070
     1
1070
     4
1002
}
  0
BLOCK_RECORD
  5
2BCE
330
1
100
AcDbSymbolTableRecord
100
AcDbBlockTableRecord
  2
M6-krilna
340
0
310
2800000020000000200000000100080000000000000400000000000000000000000000000000000000000000000080000080000000808000800000008000800080800000C0C0C000C0DCC000F0CAA6000020400000206000002080000020A0000020C0000020E00000400000004020000040400000406000004080000040A0
310
000040C0000040E00000600000006020000060400000606000006080000060A0000060C0000060E00000800000008020000080400000806000008080000080A0000080C0000080E00000A0000000A0200000A0400000A0600000A0800000A0A00000A0C00000A0E00000C0000000C0200000C0400000C0600000C0800000C0
310
A00000C0C00000C0E00000E0000000E0200000E0400000E0600000E0800000E0A00000E0C00000E0E00040000000400020004000400040006000400080004000A0004000C0004000E00040200000402020004020400040206000402080004020A0004020C0004020E000404000004040200040404000404060004040800040
310
40A0004040C0004040E00040600000406020004060400040606000406080004060A0004060C0004060E00040800000408020004080400040806000408080004080A0004080C0004080E00040A0000040A0200040A0400040A0600040A0800040A0A00040A0C00040A0E00040C0000040C0200040C0400040C0600040C08000
310
40C0A00040C0C00040C0E00040E0000040E0200040E0400040E0600040E0800040E0A00040E0C00040E0E00080000000800020008000400080006000800080008000A0008000C0008000E00080200000802020008020400080206000802080008020A0008020C0008020E00080400000804020008040400080406000804080
310
008040A0008040C0008040E00080600000806020008060400080606000806080008060A0008060C0008060E00080800000808020008080400080806000808080008080A0008080C0008080E00080A0000080A0200080A0400080A0600080A0800080A0A00080A0C00080A0E00080C0000080C0200080C0400080C0600080C0
310
800080C0A00080C0C00080C0E00080E0000080E0200080E0400080E0600080E0800080E0A00080E0C00080E0E000C0000000C0002000C0004000C0006000C0008000C000A000C000C000C000E000C0200000C0202000C0204000C0206000C0208000C020A000C020C000C020E000C0400000C0402000C0404000C0406000C0
310
408000C040A000C040C000C040E000C0600000C0602000C0604000C0606000C0608000C060A000C060C000C060E000C0800000C0802000C0804000C0806000C0808000C080A000C080C000C080E000C0A00000C0A02000C0A04000C0A06000C0A08000C0A0A000C0A0C000C0A0E000C0C00000C0C02000C0C04000C0C06000
310
C0C08000C0C0A000F0FBFF00A4A0A000808080000000FF0000FF000000FFFF00FF000000FF00FF00FFFF0000FFFFFF0000000000000000000000000000000000000000000000000000000000000000000000000000000000000000000000000000000000000000000000000000000000000000000000000000000000000000
310
00000000000000000000000000000000000000000000000000000000000000000000000000000000000000000000000000000000000000000000000000000000000000000000000000000000000000000000000000000000000000000000000000000000000000000000000000000000000000000000000000000000000000
310
00000000000000000000000000000000000000000000000000000000000000000000000000000000000000000000000000000000000000FFFF000000000000000000000000000000000000FFFF0000000000000000FFFF0000FFFFFF000000000000000000000000FFFFFF0000FFFF0000000000FFFF0000000000FF000000
310
000000000000000000FF0000000000FFFF00000000FF00000000000000FF00000000000000000000FF00000000000000FF000000FF0000000000000000FF00000000000000000000FF0000000000000000FF0000FF0000000000000000FF00000000000000000000FF0000000000000000FF000000FF0000000000000000FF
310
000000000000000000FF00000000000000FF00000000FF0000000000000000FF0000000000000000FF0000000000000000FF0000000000FF00000000000000FFFFFFFFFFFFFFFFFFFF00000000000000FF00000000000000FF000000000000FF0000000000000000FF000000000000FF000000000000000000FF0000000000
310
FF0000000000000000FF0000000000FF0000000000000000000000FF00000000FF0000000000000000FF00000000FF00000000000000000000000000FF0000FF00000000000000000000FF0000FF000000000000000000000000000000FF00FF00000000000000000000FF00FF0000000000000000000000000000000000FF
310
FF00000000000000000000FFFF00000000000000000000000000000000000000FFFFFFFFFFFFFFFFFFFFFFFF0000000000000000000000000000000000000000000000000000000000000000000000000000000000000000000000000000000000000000000000000000000000000000000000000000000000000000000000
310
00000000000000000000000000000000000000000000000000000000000000000000000000000000000000000000000000000000000000000000000000000000000000000000000000000000000000000000000000000000000000000000000000000000000000000000000000000000000000000000000000000000000000
310
0000000000000000000000000000000000000000000000000000000000000000000000000000000000000000000000000000000000000000
102
{BLKREFS
331
EBF5
102
}
1001
ACAD
1000
DesignCenter Data
1002
{
1070
     1
1070
     4
1002
}
  0
BLOCK_RECORD
  5
68E8
330
1
100
AcDbSymbolTableRecord
100
AcDbBlockTableRecord
  2
vijak8x30
340
0
310
2800000020000000200000000100080000000000000400000000000000000000000000000000000000000000000080000080000000808000800000008000800080800000C0C0C000C0DCC000F0CAA6000020400000206000002080000020A0000020C0000020E00000400000004020000040400000406000004080000040A0
310
000040C0000040E00000600000006020000060400000606000006080000060A0000060C0000060E00000800000008020000080400000806000008080000080A0000080C0000080E00000A0000000A0200000A0400000A0600000A0800000A0A00000A0C00000A0E00000C0000000C0200000C0400000C0600000C0800000C0
310
A00000C0C00000C0E00000E0000000E0200000E0400000E0600000E0800000E0A00000E0C00000E0E00040000000400020004000400040006000400080004000A0004000C0004000E00040200000402020004020400040206000402080004020A0004020C0004020E000404000004040200040404000404060004040800040
310
40A0004040C0004040E00040600000406020004060400040606000406080004060A0004060C0004060E00040800000408020004080400040806000408080004080A0004080C0004080E00040A0000040A0200040A0400040A0600040A0800040A0A00040A0C00040A0E00040C0000040C0200040C0400040C0600040C08000
310
40C0A00040C0C00040C0E00040E0000040E0200040E0400040E0600040E0800040E0A00040E0C00040E0E00080000000800020008000400080006000800080008000A0008000C0008000E00080200000802020008020400080206000802080008020A0008020C0008020E00080400000804020008040400080406000804080
310
008040A0008040C0008040E00080600000806020008060400080606000806080008060A0008060C0008060E00080800000808020008080400080806000808080008080A0008080C0008080E00080A0000080A0200080A0400080A0600080A0800080A0A00080A0C00080A0E00080C0000080C0200080C0400080C0600080C0
310
800080C0A00080C0C00080C0E00080E0000080E0200080E0400080E0600080E0800080E0A00080E0C00080E0E000C0000000C0002000C0004000C0006000C0008000C000A000C000C000C000E000C0200000C0202000C0204000C0206000C0208000C020A000C020C000C020E000C0400000C0402000C0404000C0406000C0
310
408000C040A000C040C000C040E000C0600000C0602000C0604000C0606000C0608000C060A000C060C000C060E000C0800000C0802000C0804000C0806000C0808000C080A000C080C000C080E000C0A00000C0A02000C0A04000C0A06000C0A08000C0A0A000C0A0C000C0A0E000C0C00000C0C02000C0C04000C0C06000
310
C0C08000C0C0A000F0FBFF00A4A0A000808080000000FF0000FF000000FFFF00FF000000FF00FF00FFFF0000FFFFFF0000000000000000000000000000000000000000000000000000000000000000000000000000000000000000000000FFFFFFFF000000000000000000000000000000000000000000000000000000FFFF
310
FFFFFFFF0000000000000000000000000000000000000000000000000000FFFB0000FBFF0000000000000000000000000000000000000000000000000000FFFB0000FBFF0000000000000000000000000000000000000000000000000000FFFB0000FBFF0000000000000000000000000000000000000000000000000000FF
310
FB0000FBFF0000000000000000000000000000000000000000000000000000FFFB0000FBFF0000000000000000000000000000000000000000000000000000FFFB0000FBFF0000000000000000000000000000000000000000000000000000FFFB0000FBFF0000000000000000000000000000000000000000000000000000
310
FFFB0000FBFF0000000000000000000000000000000000000000000000000000FFFB0000FBFF0000000000000000000000000000000000000000000000000000FFFB0000FBFF0000000000000000000000000000000000000000000000000000FFFB0000FBFF00000000000000000000000000000000000000000000000000
310
00FFFB0000FBFF0000000000000000000000000000000000000000000000000000FFFB0000FBFF0000000000000000000000000000000000000000000000000000FFFB0000FBFF0000000000000000000000000000000000000000000000000000FFFB0000FBFF000000000000000000000000000000000000000000000000
310
0000FFFB0000FBFF0000000000000000000000000000000000000000000000000000FFFB0000FBFF0000000000000000000000000000000000000000000000000000FFFB0000FBFF0000000000000000000000000000000000000000000000000000FFFB0000FBFF0000000000000000000000000000000000000000000000
310
000000FFFB0000FBFF0000000000000000000000000000000000000000000000000000FFFB0000FBFF0000000000000000000000000000000000000000000000000000FFFB0000FBFF0000000000000000000000000000000000000000000000000000FFFB0000FBFF00000000000000000000000000000000000000000000
310
00000000FFFFFFFFFFFF000000000000000000000000000000000000000000000000000000FFFFFFFF00000000000000000000000000000000000000000000000000000000FF0000FF00000000000000000000000000000000000000000000000000000000FF0000FF00000000000000000000000000000000000000000000
310
000000000000FFFFFFFF00000000000000000000000000000000000000000000000000000000000000000000000000000000000000000000
102
{BLKREFS
331
EBF4
102
}
1001
ACAD
1000
DesignCenter Data
1002
{
1070
     1
1070
     4
1002
}
  0
BLOCK_RECORD
  5
AF03
330
1
100
AcDbSymbolTableRecord
100
AcDbBlockTableRecord
  2
*D4
340
0
  0
BLOCK_RECORD
  5
AF10
330
1
100
AcDbSymbolTableRecord
100
AcDbBlockTableRecord
  2
*D5
340
0
  0
BLOCK_RECORD
  5
AF1D
330
1
100
AcDbSymbolTableRecord
100
AcDbBlockTableRecord
  2
*D6
340
0
  0
BLOCK_RECORD
  5
AF2A
330
1
100
AcDbSymbolTableRecord
100
AcDbBlockTableRecord
  2
*D7
340
0
  0
BLOCK_RECORD
  5
AF37
330
1
100
AcDbSymbolTableRecord
100
AcDbBlockTableRecord
  2
*D8
340
0
  0
BLOCK_RECORD
  5
AF44
330
1
100
AcDbSymbolTableRecord
100
AcDbBlockTableRecord
  2
*D9
340
0
  0
BLOCK_RECORD
  5
E810
102
{ACAD_XDICTIONARY
360
E811
102
}
330
1
100
AcDbSymbolTableRecord
100
AcDbBlockTableRecord
  2
A$C0B14389D
340
0
102
{BLKREFS
331
EC79
102
}
1001
ACAD
1000
DesignCenter Data
1002
{
1070
     1
1070
     4
1002
}
  0
BLOCK_RECORD
  5
EA53
330
1
100
AcDbSymbolTableRecord
100
AcDbBlockTableRecord
  2
vgradnja U_h
340
0
310
2800000020000000200000000100080000000000000400000000000000000000000000000000000000000000000080000080000000808000800000008000800080800000C0C0C000C0DCC000F0CAA6000020400000206000002080000020A0000020C0000020E00000400000004020000040400000406000004080000040A0
310
000040C0000040E00000600000006020000060400000606000006080000060A0000060C0000060E00000800000008020000080400000806000008080000080A0000080C0000080E00000A0000000A0200000A0400000A0600000A0800000A0A00000A0C00000A0E00000C0000000C0200000C0400000C0600000C0800000C0
310
A00000C0C00000C0E00000E0000000E0200000E0400000E0600000E0800000E0A00000E0C00000E0E00040000000400020004000400040006000400080004000A0004000C0004000E00040200000402020004020400040206000402080004020A0004020C0004020E000404000004040200040404000404060004040800040
310
40A0004040C0004040E00040600000406020004060400040606000406080004060A0004060C0004060E00040800000408020004080400040806000408080004080A0004080C0004080E00040A0000040A0200040A0400040A0600040A0800040A0A00040A0C00040A0E00040C0000040C0200040C0400040C0600040C08000
310
40C0A00040C0C00040C0E00040E0000040E0200040E0400040E0600040E0800040E0A00040E0C00040E0E00080000000800020008000400080006000800080008000A0008000C0008000E00080200000802020008020400080206000802080008020A0008020C0008020E00080400000804020008040400080406000804080
310
008040A0008040C0008040E00080600000806020008060400080606000806080008060A0008060C0008060E00080800000808020008080400080806000808080008080A0008080C0008080E00080A0000080A0200080A0400080A0600080A0800080A0A00080A0C00080A0E00080C0000080C0200080C0400080C0600080C0
310
800080C0A00080C0C00080C0E00080E0000080E0200080E0400080E0600080E0800080E0A00080E0C00080E0E000C0000000C0002000C0004000C0006000C0008000C000A000C000C000C000E000C0200000C0202000C0204000C0206000C0208000C020A000C020C000C020E000C0400000C0402000C0404000C0406000C0
310
408000C040A000C040C000C040E000C0600000C0602000C0604000C0606000C0608000C060A000C060C000C060E000C0800000C0802000C0804000C0806000C0808000C080A000C080C000C080E000C0A00000C0A02000C0A04000C0A06000C0A08000C0A0A000C0A0C000C0A0E000C0C00000C0C02000C0C04000C0C06000
310
C0C08000C0C0A000F0FBFF00A4A0A000808080000000FF0000FF000000FFFF00FF000000FF00FF00FFFF0000FFFFFF0051515151515151515151515151515151515151515151515151515151515151515151515151515151515151515151515151515151515151515151515151515151515151515151515151515151515151
310
51515151515151515151515151515151515151515151515151515151515151515151515151515151515151515151515151515151515151515151515151515151515151515151515151515151515151515151515151515151515107070707070707070707070707070707070707070707515151515151515151510751515151
310
51515151515151515151515151515151075151515151515151515107515151515151515151515151515151515151515107515151515151515151510751515151515151515151515151515151515151510751515151515151515151075151515151515151515151FFFFFFFFFFFFFFFFFF075151515151515151515107515151
310
5151515151515151FF51515151515151510751515151515151515151075151515151515151515151FF51515151515151510751515151515151515151075151515151515151515151FF51515151515151510751515151515151515151075151515151515151515151FF51515151515151510751515151515151515151075151
310
515151515151515151FF51515151515151510751515151515151515151075151515151515151515151FF51515151515151510751515151515151515151075151515151515151515151FF51515151515151510751515151515151515151075151515151515151515151FF515151515151515107515151515151515151510751
310
5151515151515151FFFFFF5151515151515151075151515151515151515107510707070707070707FFFFFFFFFFFFFFFFFFFFFF075151515151515151515107510707070707510707070707515151515151515107515151515151515151510751070707070707070751070751515151515151510751510707FFFF0751515107
310
510707070707070707070707515151515151515107515107FFFFFFFF51515107515151515151515151515151515151515151515107515107FFFFFFFF51515107515151515151515151515151515151515151515107515107FFFFFFFF5151510751515151515151515151515151515151515151510751510707070707515151
310
07070707070707070707070707070707070707070707515151515151515151515151515151515151515151515151515151515151515151515151515151515151515151515151515151515151515151515151515151515151515151515151515151515151515151515151515151515151515151515151515151515151515151
310
5151515151515151515151515151515151515151515151515151515151515151515151515151515151515151515151515151515151515151
102
{BLKREFS
331
EC16
102
}
1001
ACAD
1000
DesignCenter Data
1002
{
1070
     1
1070
     4
1002
}
  0
BLOCK_RECORD
  5
EC96
330
1
100
AcDbSymbolTableRecord
100
AcDbBlockTableRecord
  2
*D12
340
0
  0
BLOCK_RECORD
  5
ECA3
330
1
100
AcDbSymbolTableRecord
100
AcDbBlockTableRecord
  2
*D13
340
0
  0
BLOCK_RECORD
  5
ECB0
330
1
100
AcDbSymbolTableRecord
100
AcDbBlockTableRecord
  2
*D14
340
0
  0
BLOCK_RECORD
  5
ECBE
330
1
100
AcDbSymbolTableRecord
100
AcDbBlockTableRecord
  2
*D15
340
0
  0
BLOCK_RECORD
  5
ECCB
330
1
100
AcDbSymbolTableRecord
100
AcDbBlockTableRecord
  2
*D16
340
0
  0
BLOCK_RECORD
  5
ECD9
330
1
100
AcDbSymbolTableRecord
100
AcDbBlockTableRecord
  2
*D17
340
0
  0
BLOCK_RECORD
  5
ECE7
330
1
100
AcDbSymbolTableRecord
100
AcDbBlockTableRecord
  2
*D18
340
0
  0
BLOCK_RECORD
  5
ECF5
330
1
100
AcDbSymbolTableRecord
100
AcDbBlockTableRecord
  2
*D19
340
0
  0
BLOCK_RECORD
  5
ED74
330
1
100
AcDbSymbolTableRecord
100
AcDbBlockTableRecord
  2
*D20
340
0
  0
BLOCK_RECORD
  5
10107
330
1
100
AcDbSymbolTableRecord
100
AcDbBlockTableRecord
  2
*D21
340
0
  0
BLOCK_RECORD
  5
1011F
330
1
100
AcDbSymbolTableRecord
100
AcDbBlockTableRecord
  2
*D22
340
0
  0
ENDTAB
  0
ENDSEC
  0
SECTION
  2
BLOCKS
  0
BLOCK
  5
76
330
75
100
AcDbEntity
  8
0
100
AcDbBlockBegin
  2
*Model_Space
 70
     0
 10
0.0
 20
0.0
 30
0.0
  3
*Model_Space
  1

  0
ENDBLK
  5
77
330
75
100
AcDbEntity
  8
0
100
AcDbBlockEnd
  0
BLOCK
  5
72
330
71
100
AcDbEntity
 67
     1
  8
0
100
AcDbBlockBegin
  2
*Paper_Space
 70
     0
 10
0.0
 20
0.0
 30
0.0
  3
*Paper_Space
  1

  0
ENDBLK
  5
73
330
71
100
AcDbEntity
 67
     1
  8
0
100
AcDbBlockEnd
  0
BLOCK
  5
7A
330
79
100
AcDbEntity
 67
     1
  8
0
100
AcDbBlockBegin
  2
*Paper_Space0
 70
     0
 10
0.0
 20
0.0
 30
0.0
  3
*Paper_Space0
  1

  0
ENDBLK
  5
7B
330
79
100
AcDbEntity
 67
     1
  8
0
100
AcDbBlockEnd
  0
BLOCK
  5
2BAF
330
2BAE
100
AcDbEntity
  8
0
100
AcDbBlockBegin
  2
puša 8x14
 70
     0
 10
0.0
 20
0.0
 30
0.0
  3
puša 8x14
  1

  0
LINE
  5
2BB0
330
2BAE
100
AcDbEntity
  8
3
  6
HIDDEN
 62
     2
 48
40.0
100
AcDbLine
 10
0.0
 20
0.5000000000009095
 30
0.0
 11
-4.099999999997635
 21
0.4999999999986361
 31
0.0
  0
LINE
  5
2BB1
330
2BAE
100
AcDbEntity
  8
3
  6
HIDDEN
 62
     2
 48
40.0
100
AcDbLine
 10
-0.25
 20
12.26794919242957
 30
0.0
 11
-4.099999999997635
 21
12.26794919242957
 31
0.0
  0
LINE
  5
2BB2
330
2BAE
100
AcDbEntity
  8
3
  6
CENTER
 62
     1
 48
40.0
100
AcDbLine
 10
0.0
 20
13.26794919242866
 30
0.0
 11
0.0
 21
0.0
 31
0.0
  0
LINE
  5
2BB3
330
2BAE
100
AcDbEntity
  8
3
  6
HIDDEN
 62
     7
 48
40.0
100
AcDbLine
 10
-0.25
 20
13.26794919242866
 30
0.0
 11
-3.099999999998543
 21
13.26794919242866
 31
0.0
  0
LINE
  5
2BB4
330
2BAE
100
AcDbEntity
  8
3
  6
CENTER
 62
     7
 48
40.0
100
AcDbLine
 10
0.250000000001819
 20
13.26794919242866
 30
0.0
 11
0.250000000001819
 21
6.0
 31
0.0
  0
LINE
  5
2BB5
330
2BAE
100
AcDbEntity
  8
3
  6
HIDDEN
 62
     7
 48
40.0
100
AcDbLine
 10
0.250000000001819
 20
6.0
 30
0.0
 11
-0.25
 21
6.0
 31
0.0
  0
LINE
  5
2BB6
330
2BAE
100
AcDbEntity
  8
3
  6
CENTER
 62
     7
 48
40.0
100
AcDbLine
 10
-0.25
 20
13.26794919242866
 30
0.0
 11
-0.25
 21
6.0
 31
0.0
  0
LINE
  5
2BB7
330
2BAE
100
AcDbEntity
  8
3
  6
HIDDEN
 62
     7
 48
40.0
100
AcDbLine
 10
-4.099999999997635
 20
8.767949192429567
 30
0.0
 11
-4.099999999997635
 21
0.5
 31
0.0
  0
LINE
  5
2BB8
330
2BAE
100
AcDbEntity
  8
3
  6
HIDDEN
 62
     2
 48
40.0
100
AcDbLine
 10
-0.25
 20
8.767949192432752
 30
0.0
 11
-4.099999999997635
 21
8.767949192429567
 31
0.0
  0
LINE
  5
2BB9
330
2BAE
100
AcDbEntity
  8
3
  6
HIDDEN
 62
     2
 48
40.0
100
AcDbLine
 10
-0.25
 20
10.76794919242866
 30
0.0
 11
-4.099999999997635
 21
10.76794919242866
 31
0.0
  0
LINE
  5
2BBA
330
2BAE
100
AcDbEntity
  8
3
  6
HIDDEN
 62
     7
 48
40.0
100
AcDbLine
 10
-3.800000000001997
 20
10.76794919242866
 30
0.0
 11
-3.800000000001997
 21
8.767949192429567
 31
0.0
  0
LINE
  5
2BBB
330
2BAE
100
AcDbEntity
  8
3
  6
HIDDEN
 62
     7
 48
40.0
100
AcDbLine
 10
-3.099999999998543
 20
13.26794919242866
 30
0.0
 11
-4.099999999997635
 21
12.26794919242957
 31
0.0
1001
GENIUS_GENFIL_13
1070
     0
1040
1.0
1040
1.0
1040
20.0
1040
0.0
1002
{
1002
}
1001
GENIUS_GENODEF_13
1002
{
1000
HIER
1070
     0
1002
}
1002
{
1000
MANEDIT
1070
     0
1002
}
1002
{
1000
NOSEL
1070
     0
1002
}
1002
{
1000
BEHIND
1070
     0
1002
}
1002
{
1000
REACTOR
1002
}
1001
GENIUS_GENOBJ-N-CHA_13
1002
{
1000
OWNER
1000
GEN
1002
}
  0
LINE
  5
2BBC
330
2BAE
100
AcDbEntity
  8
3
  6
HIDDEN
 62
     7
 48
40.0
100
AcDbLine
 10
-4.099999999997635
 20
12.26794919242957
 30
0.0
 11
-4.099999999997635
 21
10.76794919242866
 31
0.0
  0
LINE
  5
2BBD
330
2BAE
100
AcDbEntity
  8
3
  6
HIDDEN
 62
     7
 48
40.0
100
AcDbLine
 10
-4.099999999997635
 20
0.5
 30
0.0
 11
-3.599999999998543
 21
0.0
 31
0.0
  0
HATCH
  5
2BBE
330
2BAE
100
AcDbEntity
  8
3
100
AcDbHatch
 10
0.0
 20
0.0
 30
0.0
210
0.0
220
0.0
230
1.0
  2
_U
 70
     0
 71
     0
 91
        1
 92
        1
 93
        5
 72
     1
 10
4.100000000000362
 20
6.0
 11
4.100000000000362
 21
0.5
 72
     1
 10
4.100000000000362
 20
0.5
 11
3.600000000001273
 21
0.0
 72
     1
 10
3.600000000001273
 20
0.0
 11
2.5
 21
0.0
 72
     1
 10
2.500000000001818
 20
0.0
 11
2.500000000001818
 21
6.0
 72
     1
 10
2.500000000001818
 20
6.0
 11
4.100000000000362
 21
6.0
 97
        0
 75
     0
 76
     0
 52
45.0
 41
1.0
 77
     0
 78
     1
 53
135.0
 43
293.1096270686721
 44
-1130.168578266255
 45
0.7071067811865474
 46
0.7071067811865474
 79
     0
 98
        1
 10
-160.2127849364808
 20
-1374.490455794248
1001
GENIUS_GENODEF_13
1002
{
1000
HIER
1070
     0
1002
}
1002
{
1000
MANEDIT
1070
     0
1002
}
1002
{
1000
NOSEL
1070
     0
1002
}
1002
{
1000
BEHIND
1070
     0
1002
}
1002
{
1000
REACTOR
1002
}
1001
GENIUS_GENOBJ-N-HTC_13
1002
{
1000
OWNER
1000
GEN
1002
}
1001
GENIUS_GENHATCH_13
1002
{
1000
DATA
1040
45.0
1042
2.5
1000
_U
1070
     0
1011
129.6227903792701
1021
-240.0431404598421
1031
0.0
1002
}
1002
{
1000
UCS
1010
0.0
1020
0.0
1030
0.0
1010
1.0
1020
0.0
1030
0.0
1010
0.0
1020
1.0
1030
0.0
1002
}
  0
LINE
  5
2BBF
330
2BAE
100
AcDbEntity
  8
3
  6
HIDDEN
 62
     2
 48
40.0
100
AcDbLine
 10
3.0
 20
8.267949192429567
 30
0.0
 11
3.0
 21
0.0
 31
0.0
  0
LINE
  5
2BC0
330
2BAE
100
AcDbEntity
  8
3
  6
HIDDEN
 62
     7
 48
40.0
100
AcDbLine
 10
4.100000000000362
 20
8.767949192429567
 30
0.0
 11
4.100000000000362
 21
0.5
 31
0.0
  0
LINE
  5
2BC1
330
2BAE
100
AcDbEntity
  8
3
  6
HIDDEN
 62
     7
 48
40.0
100
AcDbLine
 10
3.799999999999272
 20
10.76794919242866
 30
0.0
 11
3.799999999999272
 21
8.767949192429567
 31
0.0
  0
LINE
  5
2BC2
330
2BAE
100
AcDbEntity
  8
3
  6
HIDDEN
 62
     7
 48
40.0
100
AcDbLine
 10
4.100000000000362
 20
12.26794919242957
 30
0.0
 11
3.100000000001273
 21
13.26794919242866
 31
0.0
1001
GENIUS_GENFIL_13
1070
     0
1040
1.0
1040
1.0
1040
20.0
1040
0.0
1002
{
1002
}
1001
GENIUS_GENODEF_13
1002
{
1000
HIER
1070
     0
1002
}
1002
{
1000
MANEDIT
1070
     0
1002
}
1002
{
1000
NOSEL
1070
     0
1002
}
1002
{
1000
BEHIND
1070
     0
1002
}
1002
{
1000
REACTOR
1002
}
1001
GENIUS_GENOBJ-N-CHA_13
1002
{
1000
OWNER
1000
GEN
1002
}
  0
LINE
  5
2BC3
330
2BAE
100
AcDbEntity
  8
3
  6
HIDDEN
 62
     7
 48
40.0
100
AcDbLine
 10
4.100000000000362
 20
12.26794919242957
 30
0.0
 11
4.100000000000362
 21
10.76794919242866
 31
0.0
  0
LINE
  5
2BC4
330
2BAE
100
AcDbEntity
  8
3
  6
HIDDEN
 62
     7
 48
40.0
100
AcDbLine
 10
4.100000000000362
 20
0.5
 30
0.0
 11
3.600000000001273
 21
0.0
 31
0.0
  0
LINE
  5
2BC5
330
2BAE
100
AcDbEntity
  8
3
  6
HIDDEN
 62
     7
 48
40.0
100
AcDbLine
 10
3.799999999999272
 20
10.76794919242866
 30
0.0
 11
4.100000000000362
 21
10.76794919242866
 31
0.0
  0
LINE
  5
2BC6
330
2BAE
100
AcDbEntity
  8
3
  6
HIDDEN
 62
     7
 48
40.0
100
AcDbLine
 10
3.799999999999272
 20
8.767949192429567
 30
0.0
 11
4.100000000000362
 21
8.767949192429567
 31
0.0
  0
LINE
  5
2BC7
330
2BAE
100
AcDbEntity
  8
3
  6
HIDDEN
 62
     2
 48
40.0
100
AcDbLine
 10
2.500000000001818
 20
6.0
 30
0.0
 11
4.100000000000362
 21
6.0
 31
0.0
  0
LINE
  5
2BC8
330
2BAE
100
AcDbEntity
  8
3
 62
     2
100
AcDbLine
 10
1.750000000001818
 20
13.26794919242866
 30
0.0
 11
2.500000000001818
 21
8.267949192429567
 31
0.0
  0
LINE
  5
2BC9
330
2BAE
100
AcDbEntity
  8
3
  6
HIDDEN
 62
     2
 48
40.0
100
AcDbLine
 10
2.500000000001818
 20
8.267949192429567
 30
0.0
 11
2.500000000001818
 21
0.0
 31
0.0
  0
LINE
  5
2BCA
330
2BAE
100
AcDbEntity
  8
3
  6
HIDDEN
 62
     2
 48
40.0
100
AcDbLine
 10
3.0
 20
8.267949192429567
 30
0.0
 11
0.250000000001819
 21
8.267949192429567
 31
0.0
  0
LINE
  5
2BCB
330
2BAE
100
AcDbEntity
  8
3
  6
HIDDEN
 62
     7
 48
40.0
100
AcDbLine
 10
3.100000000001273
 20
13.26794919242866
 30
0.0
 11
0.250000000001819
 21
13.26794919242866
 31
0.0
  0
LINE
  5
2BCC
330
2BAE
100
AcDbEntity
  8
3
  6
HIDDEN
 62
     7
 48
40.0
100
AcDbLine
 10
3.600000000001273
 20
0.0
 30
0.0
 11
-3.599999999998543
 21
0.0
 31
0.0
  0
ENDBLK
  5
2BCD
330
2BAE
100
AcDbEntity
  8
0
100
AcDbBlockEnd
  0
BLOCK
  5
2BCF
330
2BCE
100
AcDbEntity
  8
0
100
AcDbBlockBegin
  2
M6-krilna
 70
     0
 10
0.0
 20
0.0
 30
0.0
  3
M6-krilna
  1

  0
LINE
  5
2BD0
330
2BCE
100
AcDbEntity
  8
3
 62
     7
100
AcDbLine
 10
-6.499999999998181
 20
0.0
 30
0.0
 11
-5.500000000001818
 21
-8.0
 31
0.0
  0
LWPOLYLINE
  5
2BD1
330
2BCE
100
AcDbEntity
  8
3
 62
     7
100
AcDbPolyline
 90
        8
 70
     1
 43
0.0
 10
15.02071005916969
 20
-8.449704142012706
 10
6.49999999999909
 20
0.0
 10
-6.49999999999909
 20
0.0
 10
-15.02071005917241
 20
-8.449704142012706
 42
1.337064274230317
 10
-6.616864452807933
 20
-13.07470332079356
 10
-5.500000000001818
 20
-8.0
 10
5.499999999998181
 20
-8.0
 10
6.616864452803382
 20
-13.07470332079356
 42
1.337064274230319
  0
LINE
  5
2BD2
330
2BCE
100
AcDbEntity
  8
3
 62
     7
100
AcDbLine
 10
5.499999999998181
 20
-8.0
 30
0.0
 11
6.499999999998181
 21
0.0
 31
0.0
  0
ENDBLK
  5
2BD3
330
2BCE
100
AcDbEntity
  8
0
100
AcDbBlockEnd
  0
BLOCK
  5
68E9
330
68E8
100
AcDbEntity
  8
0
100
AcDbBlockBegin
  2
vijak8x30
 70
     0
 10
0.0
 20
0.0
 30
0.0
  3
vijak8x30
  1

  0
LINE
  5
68EA
330
68E8
100
AcDbEntity
  8
3
 62
     7
100
AcDbLine
 10
-2.000000000000909
 20
-4.0
 30
0.0
 11
1.99999999999909
 21
-4.0
 31
0.0
  0
LINE
  5
68EB
330
68E8
100
AcDbEntity
  8
3
 62
     7
100
AcDbLine
 10
2.999999999999087
 20
-4.499999999999087
 30
0.0
 11
-2.999999999999087
 21
-4.499999999999087
 31
0.0
  0
LINE
  5
68EC
330
68E8
100
AcDbEntity
  8
3
 62
     7
100
AcDbLine
 10
-2.999999999999087
 20
-39.49999999999909
 30
0.0
 11
2.999999999999087
 21
-39.49999999999909
 31
0.0
  0
LWPOLYLINE
  5
68ED
330
68E8
100
AcDbEntity
  8
3
 62
     7
100
AcDbPolyline
 90
       14
 70
     1
 43
0.0
 10
-1.750000000000909
 20
0.0
 42
0.4142135623730951
 10
-2.000000000000909
 20
-0.2499999999990905
 10
-2.000000000000909
 20
-4.0
 10
-2.499999999999087
 20
-4.0
 10
-3.000000000000909
 20
-4.499999999999087
 10
-3.000000000000909
 20
-39.49999999999909
 10
-2.499999999999087
 20
-39.99999999999818
 10
2.500000000000909
 20
-39.99999999999818
 10
2.999999999999087
 20
-39.49999999999909
 10
2.999999999999087
 20
-4.499999999999087
 10
2.500000000000909
 20
-4.0
 10
1.99999999999909
 20
-4.0
 10
1.99999999999909
 20
-0.2499999999990905
 42
0.4142135623730951
 10
1.750000000000909
 20
0.0
  0
LINE
  5
68EE
330
68E8
100
AcDbEntity
  8
3
 62
     2
100
AcDbLine
 10
2.500000000000909
 20
-4.0
 30
0.0
 11
2.500000000000909
 21
-39.99999999999818
 31
0.0
  0
LINE
  5
68EF
330
68E8
100
AcDbEntity
  8
3
 62
     2
100
AcDbLine
 10
-2.499999999999087
 20
-4.0
 30
0.0
 11
-2.499999999999087
 21
-39.99999999999818
 31
0.0
  0
ENDBLK
  5
68F0
330
68E8
100
AcDbEntity
  8
0
100
AcDbBlockEnd
  0
BLOCK
  5
AF04
330
AF03
100
AcDbEntity
  8
0
100
AcDbBlockBegin
  2
*D4
 70
     1
 10
0.0
 20
0.0
 30
0.0
  3
*D4
  1

  0
LINE
  5
10300
330
AF03
100
AcDbEntity
  8
KOTA
 62
     8
370
    -2
100
AcDbLine
 10
14875.2016179822
 20
2684.951206870187
 30
0.0
 11
14875.2016179822
 21
2555.547501270713
 31
0.0
  0
LINE
  5
10301
330
AF03
100
AcDbEntity
  8
KOTA
 62
     8
370
    -2
100
AcDbLine
 10
15023.0416179822
 20
2684.951206870184
 30
0.0
 11
15023.0416179822
 21
2555.547501270713
 31
0.0
  0
LINE
  5
10302
330
AF03
100
AcDbEntity
  8
KOTA
 62
     8
370
    -2
100
AcDbLine
 10
14899.2016179822
 20
2556.987501270713
 30
0.0
 11
14915.90476642019
 21
2556.987501270713
 31
0.0
  0
LINE
  5
10303
330
AF03
100
AcDbEntity
  8
KOTA
 62
     8
370
    -2
100
AcDbLine
 10
14999.0416179822
 20
2556.987501270713
 30
0.0
 11
14978.2770741125
 21
2556.987501270713
 31
0.0
  0
SOLID
  5
10304
330
AF03
100
AcDbEntity
  8
KOTA
 62
     8
100
AcDbTrace
 10
14899.2016179822
 20
2560.987501270713
 30
0.0
 11
14899.2016179822
 21
2552.987501270713
 31
0.0
 12
14875.2016179822
 22
2556.987501270713
 32
0.0
 13
14875.2016179822
 23
2556.987501270713
 33
0.0
  0
SOLID
  5
10305
330
AF03
100
AcDbEntity
  8
KOTA
 62
     8
100
AcDbTrace
 10
14999.0416179822
 20
2560.987501270713
 30
0.0
 11
14999.0416179822
 21
2552.987501270713
 31
0.0
 12
15023.0416179822
 22
2556.987501270713
 32
0.0
 13
15023.0416179822
 23
2556.987501270713
 33
0.0
  0
MTEXT
  5
10306
330
AF03
100
AcDbEntity
  8
KOTA
 62
     9
100
AcDbMText
 10
14947.09092026635
 20
2556.987501270713
 30
0.0
 40
28.0
 41
0.0
 71
     5
 72
     1
  1
\A1;148
 73
     1
 44
1.0
1001
ACAD
1000
MTEXTBEGIN
1070
    73
1070
     1
1070
    44
1040
1.0
1070
    74
1070
     0
1000
MTEXTEND
  0
POINT
  5
10307
330
AF03
100
AcDbEntity
  8
Defpoints
 62
     0
100
AcDbPoint
 10
14875.2016179822
 20
2685.451206870187
 30
0.0
  0
POINT
  5
10308
330
AF03
100
AcDbEntity
  8
Defpoints
 62
     0
100
AcDbPoint
 10
15023.0416179822
 20
2685.451206870184
 30
0.0
  0
POINT
  5
10309
330
AF03
100
AcDbEntity
  8
Defpoints
 62
     0
100
AcDbPoint
 10
15023.0416179822
 20
2556.987501270713
 30
0.0
  0
ENDBLK
  5
AF05
330
AF03
100
AcDbEntity
  8
0
100
AcDbBlockEnd
  0
BLOCK
  5
AF11
330
AF10
100
AcDbEntity
  8
0
100
AcDbBlockBegin
  2
*D5
 70
     1
 10
0.0
 20
0.0
 30
0.0
  3
*D5
  1

  0
LINE
  5
102F6
330
AF10
100
AcDbEntity
  8
KOTA
 62
     8
370
    -2
100
AcDbLine
 10
14968.62161798221
 20
2930.371206870185
 30
0.0
 11
15103.21238314651
 21
2930.371206870185
 31
0.0
  0
LINE
  5
102F7
330
AF10
100
AcDbEntity
  8
KOTA
 62
     8
370
    -2
100
AcDbLine
 10
14968.62161798221
 20
2630.531206870185
 30
0.0
 11
15103.21238314651
 21
2630.531206870185
 31
0.0
  0
LINE
  5
102F8
330
AF10
100
AcDbEntity
  8
KOTA
 62
     8
370
    -2
100
AcDbLine
 10
15101.77238314651
 20
2906.371206870185
 30
0.0
 11
15101.77238314651
 21
2814.418900468
 31
0.0
  0
LINE
  5
102F9
330
AF10
100
AcDbEntity
  8
KOTA
 62
     8
370
    -2
100
AcDbLine
 10
15101.77238314651
 20
2654.531206870185
 30
0.0
 11
15101.77238314651
 21
2750.043515852615
 31
0.0
  0
SOLID
  5
102FA
330
AF10
100
AcDbEntity
  8
KOTA
 62
     8
100
AcDbTrace
 10
15097.77238314651
 20
2906.371206870185
 30
0.0
 11
15105.77238314651
 21
2906.371206870185
 31
0.0
 12
15101.77238314651
 22
2930.371206870185
 32
0.0
 13
15101.77238314651
 23
2930.371206870185
 33
0.0
  0
SOLID
  5
102FB
330
AF10
100
AcDbEntity
  8
KOTA
 62
     8
100
AcDbTrace
 10
15097.77238314651
 20
2654.531206870185
 30
0.0
 11
15105.77238314651
 21
2654.531206870185
 31
0.0
 12
15101.77238314651
 22
2630.531206870185
 32
0.0
 13
15101.77238314651
 23
2630.531206870185
 33
0.0
  0
MTEXT
  5
102FC
330
AF10
100
AcDbEntity
  8
KOTA
 62
     9
100
AcDbMText
 10
15101.77238314651
 20
2782.231208160309
 30
0.0
 40
28.0
 41
0.0
 71
     5
 72
     1
  1
\A1;300
 11
0.0000000000000001
 21
1.0
 31
0.0
 73
     1
 44
1.0
1001
ACAD
1000
MTEXTBEGIN
1070
    73
1070
     1
1070
    44
1040
1.0
1070
    74
1070
     0
1000
MTEXTEND
  0
POINT
  5
102FD
330
AF10
100
AcDbEntity
  8
Defpoints
 62
     0
100
AcDbPoint
 10
14968.12161798221
 20
2930.371206870185
 30
0.0
  0
POINT
  5
102FE
330
AF10
100
AcDbEntity
  8
Defpoints
 62
     0
100
AcDbPoint
 10
14968.12161798221
 20
2630.531206870185
 30
0.0
  0
POINT
  5
102FF
330
AF10
100
AcDbEntity
  8
Defpoints
 62
     0
100
AcDbPoint
 10
15101.77238314651
 20
2630.531206870185
 30
0.0
  0
ENDBLK
  5
AF12
330
AF10
100
AcDbEntity
  8
0
100
AcDbBlockEnd
  0
BLOCK
  5
AF1E
330
AF1D
100
AcDbEntity
  8
0
100
AcDbBlockBegin
  2
*D6
 70
     1
 10
0.0
 20
0.0
 30
0.0
  3
*D6
  1

  0
LINE
  5
102EC
330
AF1D
100
AcDbEntity
  8
KOTA
 62
     8
370
    -2
100
AcDbLine
 10
15025.20689362861
 20
3136.710480124965
 30
0.0
 11
15093.38262870112
 21
3136.710480124965
 31
0.0
  0
LINE
  5
102ED
330
AF1D
100
AcDbEntity
  8
KOTA
 62
     8
370
    -2
100
AcDbLine
 10
15009.86851396097
 20
3016.495653525141
 30
0.0
 11
15093.38262870112
 21
3016.495653525141
 31
0.0
  0
LINE
  5
102EE
330
AF1D
100
AcDbEntity
  8
KOTA
 62
     8
370
    -2
100
AcDbLine
 10
15091.94262870112
 20
3112.710480124965
 30
0.0
 11
15091.94262870112
 21
3110.972807532442
 31
0.0
  0
LINE
  5
102EF
330
AF1D
100
AcDbEntity
  8
KOTA
 62
     8
370
    -2
100
AcDbLine
 10
15091.94262870112
 20
3040.495653525141
 30
0.0
 11
15091.94262870112
 21
3048.23434599398
 31
0.0
  0
SOLID
  5
102F0
330
AF1D
100
AcDbEntity
  8
KOTA
 62
     8
100
AcDbTrace
 10
15087.94262870112
 20
3112.710480124965
 30
0.0
 11
15095.94262870112
 21
3112.710480124965
 31
0.0
 12
15091.94262870112
 22
3136.710480124965
 32
0.0
 13
15091.94262870112
 23
3136.710480124965
 33
0.0
  0
SOLID
  5
102F1
330
AF1D
100
AcDbEntity
  8
KOTA
 62
     8
100
AcDbTrace
 10
15087.94262870112
 20
3040.495653525141
 30
0.0
 11
15095.94262870112
 21
3040.495653525141
 31
0.0
 12
15091.94262870112
 22
3016.495653525141
 32
0.0
 13
15091.94262870112
 23
3016.495653525141
 33
0.0
  0
MTEXT
  5
102F2
330
AF1D
100
AcDbEntity
  8
KOTA
 62
     9
100
AcDbMText
 10
15091.94262870112
 20
3079.603576763213
 30
0.0
 40
28.0
 41
0.0
 71
     5
 72
     1
  1
\A1;120
 11
0.0000000000000001
 21
1.0
 31
0.0
 73
     1
 44
1.0
1001
ACAD
1000
MTEXTBEGIN
1070
    73
1070
     1
1070
    44
1040
1.0
1070
    74
1070
     0
1000
MTEXTEND
  0
POINT
  5
102F3
330
AF1D
100
AcDbEntity
  8
Defpoints
 62
     0
100
AcDbPoint
 10
15024.70689362862
 20
3136.710480124965
 30
0.0
  0
POINT
  5
102F4
330
AF1D
100
AcDbEntity
  8
Defpoints
 62
     0
100
AcDbPoint
 10
15009.36851396097
 20
3016.495653525141
 30
0.0
  0
POINT
  5
102F5
330
AF1D
100
AcDbEntity
  8
Defpoints
 62
     0
100
AcDbPoint
 10
15091.94262870112
 20
3016.495653525141
 30
0.0
  0
ENDBLK
  5
AF1F
330
AF1D
100
AcDbEntity
  8
0
100
AcDbBlockEnd
  0
BLOCK
  5
AF2B
330
AF2A
100
AcDbEntity
  8
0
100
AcDbBlockBegin
  2
*D7
 70
     1
 10
0.0
 20
0.0
 30
0.0
  3
*D7
  1

  0
LINE
  5
10314
330
AF2A
100
AcDbEntity
  8
izrez dim
 62
     8
370
    -2
100
AcDbLine
 10
15305.17191512976
 20
2684.951206870184
 30
0.0
 11
15305.17191512976
 21
2547.852871311497
 31
0.0
  0
LINE
  5
10315
330
AF2A
100
AcDbEntity
  8
izrez dim
 62
     8
370
    -2
100
AcDbLine
 10
15453.01191512978
 20
2684.951206870182
 30
0.0
 11
15453.01191512978
 21
2547.852871311497
 31
0.0
  0
LINE
  5
10316
330
AF2A
100
AcDbEntity
  8
izrez dim
 62
     8
370
    -2
100
AcDbLine
 10
15329.17191512976
 20
2549.292871311497
 30
0.0
 11
15349.38852507489
 21
2549.292871311497
 31
0.0
  0
LINE
  5
10317
330
AF2A
100
AcDbEntity
  8
izrez dim
 62
     8
370
    -2
100
AcDbLine
 10
15429.01191512978
 20
2549.292871311497
 30
0.0
 11
15411.7608327672
 21
2549.292871311497
 31
0.0
  0
SOLID
  5
10318
330
AF2A
100
AcDbEntity
  8
izrez dim
 62
     8
100
AcDbTrace
 10
15329.17191512976
 20
2553.292871311497
 30
0.0
 11
15329.17191512976
 21
2545.292871311497
 31
0.0
 12
15305.17191512976
 22
2549.292871311497
 32
0.0
 13
15305.17191512976
 23
2549.292871311497
 33
0.0
  0
SOLID
  5
10319
330
AF2A
100
AcDbEntity
  8
izrez dim
 62
     8
100
AcDbTrace
 10
15429.01191512978
 20
2553.292871311497
 30
0.0
 11
15429.01191512978
 21
2545.292871311497
 31
0.0
 12
15453.01191512978
 22
2549.292871311497
 32
0.0
 13
15453.01191512978
 23
2549.292871311497
 33
0.0
  0
MTEXT
  5
1031A
330
AF2A
100
AcDbEntity
  8
izrez dim
 62
     9
100
AcDbMText
 10
15380.57467892105
 20
2549.292871311497
 30
0.0
 40
28.0
 41
0.0
 71
     5
 72
     1
  1
\A1;148
 73
     1
 44
1.0
1001
ACAD
1000
MTEXTBEGIN
1070
    73
1070
     1
1070
    44
1040
1.0
1070
    74
1070
     0
1000
MTEXTEND
  0
POINT
  5
1031B
330
AF2A
100
AcDbEntity
  8
Defpoints
 62
     0
100
AcDbPoint
 10
15305.17191512976
 20
2685.451206870184
 30
0.0
  0
POINT
  5
1031C
330
AF2A
100
AcDbEntity
  8
Defpoints
 62
     0
100
AcDbPoint
 10
15453.01191512978
 20
2685.451206870182
 30
0.0
  0
POINT
  5
1031D
330
AF2A
100
AcDbEntity
  8
Defpoints
 62
     0
100
AcDbPoint
 10
15453.01191512978
 20
2549.292871311497
 30
0.0
  0
ENDBLK
  5
AF2C
330
AF2A
100
AcDbEntity
  8
0
100
AcDbBlockEnd
  0
BLOCK
  5
AF38
330
AF37
100
AcDbEntity
  8
0
100
AcDbBlockBegin
  2
*D8
 70
     1
 10
0.0
 20
0.0
 30
0.0
  3
*D8
  1

  0
LINE
  5
1030A
330
AF37
100
AcDbEntity
  8
izrez dim
 62
     8
370
    -2
100
AcDbLine
 10
15398.59191512977
 20
2930.371206870182
 30
0.0
 11
15524.09771854523
 21
2930.371206870182
 31
0.0
  0
LINE
  5
1030B
330
AF37
100
AcDbEntity
  8
izrez dim
 62
     8
370
    -2
100
AcDbLine
 10
15398.59191512977
 20
2630.531206870182
 30
0.0
 11
15524.09771854523
 21
2630.531206870182
 31
0.0
  0
LINE
  5
1030C
330
AF37
100
AcDbEntity
  8
izrez dim
 62
     8
370
    -2
100
AcDbLine
 10
15522.65771854523
 20
2906.371206870182
 30
0.0
 11
15522.65771854523
 21
2815.118431487343
 31
0.0
  0
LINE
  5
1030D
330
AF37
100
AcDbEntity
  8
izrez dim
 62
     8
370
    -2
100
AcDbLine
 10
15522.65771854523
 20
2654.531206870182
 30
0.0
 11
15522.65771854523
 21
2750.743046871959
 31
0.0
  0
SOLID
  5
1030E
330
AF37
100
AcDbEntity
  8
izrez dim
 62
     8
100
AcDbTrace
 10
15518.65771854523
 20
2906.371206870182
 30
0.0
 11
15526.65771854523
 21
2906.371206870182
 31
0.0
 12
15522.65771854523
 22
2930.371206870182
 32
0.0
 13
15522.65771854523
 23
2930.371206870182
 33
0.0
  0
SOLID
  5
1030F
330
AF37
100
AcDbEntity
  8
izrez dim
 62
     8
100
AcDbTrace
 10
15518.65771854523
 20
2654.531206870182
 30
0.0
 11
15526.65771854523
 21
2654.531206870182
 31
0.0
 12
15522.65771854523
 22
2630.531206870182
 32
0.0
 13
15522.65771854523
 23
2630.531206870182
 33
0.0
  0
MTEXT
  5
10310
330
AF37
100
AcDbEntity
  8
izrez dim
 62
     9
100
AcDbMText
 10
15522.65771854523
 20
2782.930739179654
 30
0.0
 40
28.0
 41
0.0
 71
     5
 72
     1
  1
\A1;300
 11
0.0000000000000001
 21
1.0
 31
0.0
 73
     1
 44
1.0
1001
ACAD
1000
MTEXTBEGIN
1070
    73
1070
     1
1070
    44
1040
1.0
1070
    74
1070
     0
1000
MTEXTEND
  0
POINT
  5
10311
330
AF37
100
AcDbEntity
  8
Defpoints
 62
     0
100
AcDbPoint
 10
15398.09191512977
 20
2930.371206870182
 30
0.0
  0
POINT
  5
10312
330
AF37
100
AcDbEntity
  8
Defpoints
 62
     0
100
AcDbPoint
 10
15398.09191512977
 20
2630.531206870182
 30
0.0
  0
POINT
  5
10313
330
AF37
100
AcDbEntity
  8
Defpoints
 62
     0
100
AcDbPoint
 10
15522.65771854523
 20
2630.531206870182
 30
0.0
  0
ENDBLK
  5
AF39
330
AF37
100
AcDbEntity
  8
0
100
AcDbBlockEnd
  0
BLOCK
  5
AF45
330
AF44
100
AcDbEntity
  8
0
100
AcDbBlockBegin
  2
*D9
 70
     1
 10
0.0
 20
0.0
 30
0.0
  3
*D9
  1

  0
LINE
  5
1031E
330
AF44
100
AcDbEntity
  8
izrez dim
 62
     8
370
    -2
100
AcDbLine
 10
15382.40861500263
 20
2851.340211165211
 30
0.0
 11
15339.08882292444
 21
2898.142978899153
 31
0.0
  0
MTEXT
  5
1031F
330
AF44
100
AcDbEntity
  8
izrez dim
 62
     9
100
AcDbMText
 10
15403.68759616916
 20
2828.350368292595
 30
0.0
 40
28.0
 41
0.0
 71
     5
 72
     1
  1
\A1;R55
 11
0.6792720635616961
 21
-0.7338865468617307
 31
0.0
 73
     1
 44
1.0
1001
ACAD
1000
MTEXTBEGIN
1070
    73
1070
     1
1070
    44
1040
1.0
1070
    74
1070
     0
1000
MTEXTEND
  0
SOLID
  5
10320
330
AF44
100
AcDbEntity
  8
izrez dim
 62
     8
100
AcDbTrace
 10
15342.02436911189
 20
2900.8600671534
 30
0.0
 11
15336.15327673699
 21
2895.425890644906
 31
0.0
 12
15322.78629339896
 22
2915.756256023835
 32
0.0
 13
15322.78629339896
 23
2915.756256023835
 33
0.0
  0
POINT
  5
10321
330
AF44
100
AcDbEntity
  8
Defpoints
 62
     0
100
AcDbPoint
 10
15322.78629339896
 20
2915.756256023835
 30
0.0
  0
POINT
  5
10322
330
AF44
100
AcDbEntity
  8
Defpoints
 62
     0
100
AcDbPoint
 10
15360.09191512978
 20
2875.451206870176
 30
0.0
  0
ENDBLK
  5
AF46
330
AF44
100
AcDbEntity
  8
0
100
AcDbBlockEnd
  0
BLOCK
  5
E813
330
E810
100
AcDbEntity
  8
0
 62
     8
100
AcDbBlockBegin
  2
A$C0B14389D
 70
     0
 10
0.0
 20
0.0
 30
0.0
  3
A$C0B14389D
  1

  0
HATCH
  5
E814
330
E810
100
AcDbEntity
  8
0
 62
     8
100
AcDbHatch
 10
0.0
 20
0.0
 30
0.0
210
0.0
220
0.0
230
1.0
  2
_USER
 70
     0
 71
     0
 91
        1
 92
        1
 93
        8
 72
     1
 10
46.000001446464
 20
5.530314201189867
 11
46.000001446464
 21
17.53031420118986
 72
     1
 10
46.000001446464
 20
17.53031420118986
 11
16.00000144646401
 21
17.53031420118986
 72
     2
 10
16.00000144646765
 20
21.53031420119078
 40
4.000000000000908
 50
90.00000000001303
 51
179.9999999999739
 73
     0
 72
     1
 10
12.00000144646401
 20
21.53031420118896
 11
12.00000144646401
 21
47.53031420119078
 72
     1
 10
12.00000144646401
 20
47.53031420119168
 11
0.0000014464640117
 21
47.53031420119168
 72
     1
 10
0.0000014464640117
 20
47.53031420119168
 11
0.0000014464640117
 21
23.53031420119078
 72
     2
 10
18.00000144646401
 20
23.53031420118987
 40
18.0
 50
180.0
 51
270.0
 73
     1
 72
     1
 10
18.00000144646401
 20
5.530314201189867
 11
46.000001446464
 21
5.530314201189867
 97
        0
 75
     0
 76
     0
 52
45.0
 41
4.0
 77
     0
 78
     1
 53
45.0
 43
-2566.96670488157
 44
-6046.042021951778
 45
-2.828427124746188
 46
2.828427124746188
 79
     0
 98
        1
 10
-2566.96670488157
 20
-6046.042021951778
1001
GENIUS_GENODEF_13
1002
{
1000
HIER
1070
     0
1002
}
1002
{
1000
MANEDIT
1070
     0
1002
}
1002
{
1000
NOSEL
1070
     0
1002
}
1002
{
1000
BEHIND
1070
     0
1002
}
1002
{
1000
REACTOR
1002
}
1001
GENIUS_GENOBJ-N-HTC_13
1002
{
1000
OWNER
1000
GEN
1002
}
1001
GENIUS_GENHATCH_13
1002
{
1000
DATA
1040
45.0
1042
9.999999999999998
1000
_U
1070
     0
1011
13.88389131826261
1021
10.29662009692856
1031
0.0
1002
}
1002
{
1000
UCS
1010
0.0
1020
0.0
1030
0.0
1010
1.0
1020
0.0
1030
0.0
1010
0.0
1020
1.0
1030
0.0
1002
}
  0
LWPOLYLINE
  5
E815
330
E810
100
AcDbEntity
  8
0
100
AcDbPolyline
 90
       12
 70
     1
 43
0.0
 10
16.00000144646401
 20
17.53031420118986
 42
-0.4142135623730951
 10
12.00000144646401
 20
21.53031420118987
 10
12.00000144646401
 20
47.53031420119168
 10
0.0000014464640117
 20
47.53031420119168
 10
0.0000014464640117
 20
23.53031420118987
 42
0.4142135623730951
 10
18.00000144646401
 20
5.530314201189867
 10
130.0000014464676
 20
5.530314201189867
 42
0.4142135623730951
 10
148.0000014464676
 20
23.53031420118987
 10
148.000001446464
 20
59.53031420119168
 10
136.000001446464
 20
59.53031420119168
 10
136.000001446464
 20
21.53031420118987
 42
-0.4142135623730951
 10
132.000001446464
 20
17.53031420118986
  0
HATCH
  5
E816
330
E810
100
AcDbEntity
  8
0
 62
     8
100
AcDbHatch
 10
0.0
 20
0.0
 30
0.0
210
0.0
220
0.0
230
1.0
  2
_USER
 70
     0
 71
     0
 91
        1
 92
        1
 93
        8
 72
     1
 10
114.000001446464
 20
5.530314201189867
 11
130.000001446464
 21
5.530314201189867
 72
     2
 10
130.0000014464676
 20
23.53031420118987
 40
18.0
 50
270.0
 51
360.0
 73
     1
 72
     1
 10
148.0000014464676
 20
23.53031420118987
 11
148.0000014464676
 21
59.53031420119078
 72
     1
 10
148.000001446464
 20
59.53031420119168
 11
136.000001446464
 21
59.53031420119168
 72
     1
 10
136.000001446464
 20
59.53031420119168
 11
136.000001446464
 21
21.53031420119078
 72
     2
 10
132.000001446464
 20
21.53031420119078
 40
4.000000000000908
 50
0.0000000000130276
 51
89.99999999998697
 73
     0
 72
     1
 10
132.000001446464
 20
17.53031420118986
 11
114.000001446464
 21
17.53031420118986
 72
     1
 10
114.000001446464
 20
17.53031420118986
 11
114.000001446464
 21
5.530314201189867
 97
        0
 75
     0
 76
     0
 52
45.0
 41
4.0
 77
     0
 78
     1
 53
45.0
 43
-2566.96670488157
 44
-6046.042021951778
 45
-2.828427124746188
 46
2.828427124746188
 79
     0
 98
        1
 10
-2566.96670488157
 20
-6046.042021951778
1001
GENIUS_GENODEF_13
1002
{
1000
HIER
1070
     0
1002
}
1002
{
1000
MANEDIT
1070
     0
1002
}
1002
{
1000
NOSEL
1070
     0
1002
}
1002
{
1000
BEHIND
1070
     0
1002
}
1002
{
1000
REACTOR
1002
}
1001
GENIUS_GENOBJ-N-HTC_13
1002
{
1000
OWNER
1000
GEN
1002
}
1001
GENIUS_GENHATCH_13
1002
{
1000
DATA
1040
45.0
1042
9.999999999999998
1000
_U
1070
     0
1011
128.6803043643158
1021
12.43624459354032
1031
0.0
1002
}
1002
{
1000
UCS
1010
0.0
1020
0.0
1030
0.0
1010
1.0
1020
0.0
1030
0.0
1010
0.0
1020
1.0
1030
0.0
1002
}
  0
LINE
  5
E817
330
E810
100
AcDbEntity
  8
0
  6
CENTER
 62
     1
100
AcDbLine
 10
74.00000144646401
 20
-0.0000004364301276
 30
0.0
 11
74.00000144646401
 21
59.53031420119168
 31
0.0
  0
LINE
  5
E818
330
E810
100
AcDbEntity
  8
0
100
AcDbLine
 10
114.000001446464
 20
5.530314201189867
 30
0.0
 11
114.000001446464
 21
17.53031420118986
 31
0.0
  0
LINE
  5
E819
330
E810
100
AcDbEntity
  8
0
100
AcDbLine
 10
46.000001446464
 20
5.530314201189867
 30
0.0
 11
46.000001446464
 21
17.53031420118986
 31
0.0
  0
ENDBLK
  5
E81A
330
E810
100
AcDbEntity
  8
0
 62
     8
100
AcDbBlockEnd
  0
BLOCK
  5
EA54
330
EA53
100
AcDbEntity
  8
0
 62
     9
100
AcDbBlockBegin
  2
vgradnja U_h
 70
     0
 10
0.0
 20
0.0
 30
0.0
  3
vgradnja U_h
  1

  0
HATCH
  5
EA55
330
EA53
100
AcDbEntity
  8
0
 62
     9
100
AcDbHatch
 10
0.0
 20
0.0
 30
0.0
210
0.0
220
0.0
230
1.0
  2
ANSI38
 70
     0
 71
     1
 91
        1
 92
        7
 72
     0
 73
     1
 93
        4
 10
7.636057496482407
 20
-25.94714010598706
 10
7.636057496482407
 20
-43.57044010598699
 10
78.20725749648227
 20
-43.57044010598699
 10
78.20725749648227
 20
-25.94714010598706
 97
        1
330
EA56
 75
     0
 76
     1
 52
0.0
 41
2.0
 77
     0
 78
     2
 53
45.0
 43
3052.281427341695
 44
658.6034586814977
 45
-4.490128060534575
 46
4.490128060534575
 79
     0
 53
135.0
 43
3052.281427341695
 44
658.6034586814977
 45
-13.47038418160373
 46
4.490128060534577
 79
     2
 49
15.875
 49
-9.525
 47
0.4283225886467861
 98
        1
 10
29.19621149990189
 20
-29.13702326793805
1001
ACAD
1010
0.0
1020
0.0
1030
0.0
  0
LWPOLYLINE
  5
EA56
102
{ACAD_REACTORS
330
EA55
102
}
330
EA53
100
AcDbEntity
  8
0
 62
     9
100
AcDbPolyline
 90
        4
 70
     1
 43
0.0
 10
7.636057496482407
 20
-25.94714010598706
 10
78.20725749648227
 20
-25.94714010598706
 10
78.20725749648227
 20
-43.57044010598699
 10
7.636057496482407
 20
-43.57044010598699
  0
LWPOLYLINE
  5
EA57
330
EA53
100
AcDbEntity
  8
0
100
AcDbPolyline
 90
        6
 70
     0
 43
0.0
 10
140.0073660828125
 20
-45.71750288794485
 10
64.76924053788843
 20
-45.71750288794485
 10
64.76924053788843
 20
-53.52160288794483
 10
82.96274053788875
 20
-53.52160288794483
 10
82.96274053788875
 20
-113.5866028879447
 10
140.0
 20
-113.5866028879447
  0
LWPOLYLINE
  5
EA58
330
EA53
100
AcDbEntity
  8
0
 62
     9
100
AcDbPolyline
 90
        4
 70
     1
 43
0.0
 10
140.0
 20
-140.0
 10
0.0
 20
-140.0
 10
0.0
 20
0.0
 10
140.0
 20
0.0
  0
LWPOLYLINE
  5
EA59
330
EA53
100
AcDbEntity
  8
0
 62
     9
100
AcDbPolyline
 90
        4
 70
     1
 43
0.0
 10
-28.07901068210958
 20
-28.0
 10
-56.07901068210956
 20
-28.0
 10
-56.07901068210956
 20
0.0
 10
-28.07901068210958
 20
0.0
  0
TEXT
  5
EA5A
330
EA53
100
AcDbEntity
  8
0
100
AcDbText
 10
-51.80423723593822
 20
-24.23562269264517
 30
0.0
 40
20.74443522862237
  1
U
  7
USER1
100
AcDbText
  0
ENDBLK
  5
EA5B
330
EA53
100
AcDbEntity
  8
0
 62
     9
100
AcDbBlockEnd
  0
BLOCK
  5
EC97
330
EC96
100
AcDbEntity
  8
0
 62
     8
100
AcDbBlockBegin
  2
*D12
 70
     1
 10
0.0
 20
0.0
 30
0.0
  3
*D12
  1

  0
LINE
  5
10323
330
EC96
100
AcDbEntity
  8
KOTA
  6
Continuous
 62
     8
370
    -2
100
AcDbLine
 10
16493.19009671114
 20
3527.831808550912
 30
0.0
 11
16493.19009671114
 21
3620.832123077351
 31
0.0
  0
LINE
  5
10324
330
EC96
100
AcDbEntity
  8
KOTA
  6
Continuous
 62
     8
370
    -2
100
AcDbLine
 10
16413.19009671114
 20
3542.594204243879
 30
0.0
 11
16413.19009671114
 21
3620.832123077351
 31
0.0
  0
LINE
  5
10325
330
EC96
100
AcDbEntity
  8
KOTA
  6
Continuous
 62
     8
370
    -2
100
AcDbLine
 10
16475.19009671114
 20
3619.752123077351
 30
0.0
 11
16469.05251945849
 21
3619.752123077351
 31
0.0
  0
LINE
  5
10326
330
EC96
100
AcDbEntity
  8
KOTA
  6
Continuous
 62
     8
370
    -2
100
AcDbLine
 10
16431.19009671114
 20
3619.752123077351
 30
0.0
 11
16437.78098099695
 21
3619.752123077351
 31
0.0
  0
SOLID
  5
10327
330
EC96
100
AcDbEntity
  8
KOTA
  6
Continuous
 62
     8
100
AcDbTrace
 10
16475.19009671114
 20
3622.752123077351
 30
0.0
 11
16475.19009671114
 21
3616.752123077351
 31
0.0
 12
16493.19009671114
 22
3619.752123077351
 32
0.0
 13
16493.19009671114
 23
3619.752123077351
 33
0.0
  0
SOLID
  5
10328
330
EC96
100
AcDbEntity
  8
KOTA
  6
Continuous
 62
     8
100
AcDbTrace
 10
16431.19009671114
 20
3622.752123077351
 30
0.0
 11
16431.19009671114
 21
3616.752123077351
 31
0.0
 12
16413.19009671114
 22
3619.752123077351
 32
0.0
 13
16413.19009671114
 23
3619.752123077351
 33
0.0
  0
MTEXT
  5
10329
330
EC96
100
AcDbEntity
  8
KOTA
  6
Continuous
 62
     8
100
AcDbMText
 10
16453.41675022772
 20
3619.752123077351
 30
0.0
 40
21.0
 41
0.0
 71
     5
 72
     1
  1
\A1;20
 73
     1
 44
1.0
1001
ACAD
1000
MTEXTBEGIN
1070
    73
1070
     1
1070
    44
1040
1.0
1070
    74
1070
     0
1000
MTEXTEND
  0
POINT
  5
1032A
330
EC96
100
AcDbEntity
  8
Defpoints
  6
Continuous
 62
     0
100
AcDbPoint
 10
16493.19009671114
 20
3527.456808550912
 30
0.0
  0
POINT
  5
1032B
330
EC96
100
AcDbEntity
  8
Defpoints
  6
Continuous
 62
     0
100
AcDbPoint
 10
16413.19009671114
 20
3542.21920424388
 30
0.0
  0
POINT
  5
1032C
330
EC96
100
AcDbEntity
  8
Defpoints
  6
Continuous
 62
     0
100
AcDbPoint
 10
16413.19009671114
 20
3619.752123077351
 30
0.0
  0
ENDBLK
  5
EC98
330
EC96
100
AcDbEntity
  8
0
 62
     8
100
AcDbBlockEnd
  0
BLOCK
  5
ECA4
330
ECA3
100
AcDbEntity
  8
0
 62
     8
100
AcDbBlockBegin
  2
*D13
 70
     1
 10
0.0
 20
0.0
 30
0.0
  3
*D13
  1

  0
LINE
  5
1032D
330
ECA3
100
AcDbEntity
  8
KOTA
  6
Continuous
 62
     8
370
    -2
100
AcDbLine
 10
16413.1900967113
 20
3464.177208217618
 30
0.0
 11
16413.1900967113
 21
3241.738771866907
 31
0.0
  0
LINE
  5
1032E
330
ECA3
100
AcDbEntity
  8
KOTA
  6
Continuous
 62
     8
370
    -2
100
AcDbLine
 10
16575.1900967113
 20
3265.994709344757
 30
0.0
 11
16575.1900967113
 21
3241.738771866907
 31
0.0
  0
LINE
  5
1032F
330
ECA3
100
AcDbEntity
  8
KOTA
  6
Continuous
 62
     8
370
    -2
100
AcDbLine
 10
16551.1900967113
 20
3243.178771866907
 30
0.0
 11
16437.1900967113
 21
3243.178771866907
 31
0.0
  0
LINE
  5
10330
330
ECA3
100
AcDbEntity
  8
KOTA
  6
Continuous
 62
     8
370
    -2
100
AcDbLine
 10
16413.1900967113
 20
3243.178771866907
 30
0.0
 11
16389.1900967113
 21
3243.178771866907
 31
0.0
  0
SOLID
  5
10331
330
ECA3
100
AcDbEntity
  8
KOTA
  6
Continuous
 62
     8
100
AcDbTrace
 10
16551.1900967113
 20
3247.178771866906
 30
0.0
 11
16551.1900967113
 21
3239.178771866907
 31
0.0
 12
16575.1900967113
 22
3243.178771866907
 32
0.0
 13
16575.1900967113
 23
3243.178771866907
 33
0.0
  0
SOLID
  5
10332
330
ECA3
100
AcDbEntity
  8
KOTA
  6
Continuous
 62
     8
100
AcDbTrace
 10
16437.1900967113
 20
3247.178771866906
 30
0.0
 11
16437.1900967113
 21
3239.178771866907
 31
0.0
 12
16413.1900967113
 22
3243.178771866907
 32
0.0
 13
16413.1900967113
 23
3243.178771866907
 33
0.0
  0
MTEXT
  5
10333
330
ECA3
100
AcDbEntity
  8
KOTA
  6
Continuous
 62
     9
100
AcDbMText
 10
16330.00394286514
 20
3243.178771866907
 30
0.0
 40
28.0
 41
0.0
 71
     5
 72
     1
  1
\A1;min 40
 73
     1
 44
1.0
1001
ACAD
1000
MTEXTBEGIN
1070
    73
1070
     1
1070
    44
1040
1.0
1070
    74
1070
     0
1000
MTEXTEND
  0
POINT
  5
10334
330
ECA3
100
AcDbEntity
  8
Defpoints
  6
Continuous
 62
     0
100
AcDbPoint
 10
16413.1900967113
 20
3464.677208217617
 30
0.0
  0
POINT
  5
10335
330
ECA3
100
AcDbEntity
  8
Defpoints
  6
Continuous
 62
     0
100
AcDbPoint
 10
16575.1900967113
 20
3266.494709344757
 30
0.0
  0
POINT
  5
10336
330
ECA3
100
AcDbEntity
  8
Defpoints
  6
Continuous
 62
     0
100
AcDbPoint
 10
16575.1900967113
 20
3243.178771866907
 30
0.0
  0
ENDBLK
  5
ECA5
330
ECA3
100
AcDbEntity
  8
0
 62
     8
100
AcDbBlockEnd
  0
BLOCK
  5
ECB1
330
ECB0
100
AcDbEntity
  8
0
 62
     8
100
AcDbBlockBegin
  2
*D14
 70
     1
 10
0.0
 20
0.0
 30
0.0
  3
*D14
  1

  0
LINE
  5
10337
330
ECB0
100
AcDbEntity
  8
KOTA
  6
Continuous
 62
     8
370
    -2
100
AcDbLine
 10
16307.87171591814
 20
3464.677208217617
 30
0.0
 11
16279.43029392061
 21
3464.677208217617
 31
0.0
  0
LINE
  5
10338
330
ECB0
100
AcDbEntity
  8
KOTA
  6
Continuous
 62
     8
370
    -2
100
AcDbLine
 10
16308.24534965182
 20
3460.67720821762
 30
0.0
 11
16279.43029392061
 21
3460.67720821762
 31
0.0
  0
LINE
  5
10339
330
ECB0
100
AcDbEntity
  8
KOTA
  6
Continuous
 62
     8
370
    -2
100
AcDbLine
 10
16280.51029392061
 20
3482.677208217617
 30
0.0
 11
16280.51029392061
 21
3500.677208217617
 31
0.0
  0
LINE
  5
1033A
330
ECB0
100
AcDbEntity
  8
KOTA
  6
Continuous
 62
     8
370
    -2
100
AcDbLine
 10
16280.51029392061
 20
3442.677208217619
 30
0.0
 11
16280.51029392061
 21
3410.380311390412
 31
0.0
  0
LINE
  5
1033B
330
ECB0
100
AcDbEntity
  8
KOTA
  6
Continuous
 62
     8
370
    -2
100
AcDbLine
 10
16280.51029392061
 20
3464.677208217617
 30
0.0
 11
16280.51029392061
 21
3460.67720821762
 31
0.0
  0
SOLID
  5
1033C
330
ECB0
100
AcDbEntity
  8
KOTA
  6
Continuous
 62
     8
100
AcDbTrace
 10
16277.51029392061
 20
3482.677208217617
 30
0.0
 11
16283.51029392061
 21
3482.677208217617
 31
0.0
 12
16280.51029392061
 22
3464.677208217617
 32
0.0
 13
16280.51029392061
 23
3464.677208217617
 33
0.0
  0
SOLID
  5
1033D
330
ECB0
100
AcDbEntity
  8
KOTA
  6
Continuous
 62
     8
100
AcDbTrace
 10
16277.51029392061
 20
3442.677208217619
 30
0.0
 11
16283.51029392061
 21
3442.677208217619
 31
0.0
 12
16280.51029392061
 22
3460.67720821762
 32
0.0
 13
16280.51029392061
 23
3460.67720821762
 33
0.0
  0
MTEXT
  5
1033E
330
ECB0
100
AcDbEntity
  8
KOTA
  6
Continuous
 62
     8
100
AcDbMText
 10
16280.51029392061
 20
3394.696080621184
 30
0.0
 40
21.0
 41
0.0
 71
     5
 72
     1
  1
\A1;~1
 11
0.0000000000000001
 21
1.0
 31
0.0
 73
     1
 44
1.0
1001
ACAD
1000
MTEXTBEGIN
1070
    73
1070
     1
1070
    44
1040
1.0
1070
    74
1070
     0
1000
MTEXTEND
  0
POINT
  5
1033F
330
ECB0
100
AcDbEntity
  8
Defpoints
  6
Continuous
 62
     0
100
AcDbPoint
 10
16308.24671591814
 20
3464.677208217617
 30
0.0
  0
POINT
  5
10340
330
ECB0
100
AcDbEntity
  8
Defpoints
  6
Continuous
 62
     0
100
AcDbPoint
 10
16308.62034965182
 20
3460.67720821762
 30
0.0
  0
POINT
  5
10341
330
ECB0
100
AcDbEntity
  8
Defpoints
  6
Continuous
 62
     0
100
AcDbPoint
 10
16280.51029392061
 20
3460.67720821762
 30
0.0
  0
ENDBLK
  5
ECB2
330
ECB0
100
AcDbEntity
  8
0
 62
     8
100
AcDbBlockEnd
  0
BLOCK
  5
ECBF
330
ECBE
100
AcDbEntity
  8
0
 62
     8
100
AcDbBlockBegin
  2
*D15
 70
     1
 10
0.0
 20
0.0
 30
0.0
  3
*D15
  1

  0
LINE
  5
10342
330
ECBE
100
AcDbEntity
  8
KOTA
  6
Continuous
 62
     8
370
    -2
100
AcDbLine
 10
15855.83501901624
 20
3464.302208217617
 30
0.0
 11
15855.83501901624
 21
3255.078034088104
 31
0.0
  0
LINE
  5
10343
330
ECBE
100
AcDbEntity
  8
KOTA
  6
Continuous
 62
     8
370
    -2
100
AcDbLine
 10
15994.78639982122
 20
3276.105419070525
 30
0.0
 11
15994.78639982122
 21
3255.078034088104
 31
0.0
  0
LINE
  5
10344
330
ECBE
100
AcDbEntity
  8
KOTA
  6
Continuous
 62
     8
370
    -2
100
AcDbLine
 10
15873.83501901624
 20
3256.158034088104
 30
0.0
 11
15878.55920539336
 21
3256.158034088104
 31
0.0
  0
LINE
  5
10345
330
ECBE
100
AcDbEntity
  8
KOTA
  6
Continuous
 62
     8
370
    -2
100
AcDbLine
 10
15976.78639982122
 20
3256.158034088104
 30
0.0
 11
15967.3384361626
 21
3256.158034088104
 31
0.0
  0
SOLID
  5
10346
330
ECBE
100
AcDbEntity
  8
KOTA
  6
Continuous
 62
     8
100
AcDbTrace
 10
15873.83501901624
 20
3259.158034088105
 30
0.0
 11
15873.83501901624
 21
3253.158034088104
 31
0.0
 12
15855.83501901624
 22
3256.158034088104
 32
0.0
 13
15855.83501901624
 23
3256.158034088104
 33
0.0
  0
SOLID
  5
10347
330
ECBE
100
AcDbEntity
  8
KOTA
  6
Continuous
 62
     8
100
AcDbTrace
 10
15976.78639982122
 20
3259.158034088105
 30
0.0
 11
15976.78639982122
 21
3253.158034088104
 31
0.0
 12
15994.78639982122
 22
3256.158034088104
 32
0.0
 13
15994.78639982122
 23
3256.158034088104
 33
0.0
  0
MTEXT
  5
10348
330
ECBE
100
AcDbEntity
  8
KOTA
  6
Continuous
 62
     9
100
AcDbMText
 10
15922.94882077798
 20
3256.158034088104
 30
0.0
 40
21.0
 41
0.0
 71
     5
 72
     1
  1
\A1;min 20
 73
     1
 44
1.0
1001
ACAD
1000
MTEXTBEGIN
1070
    73
1070
     1
1070
    44
1040
1.0
1070
    74
1070
     0
1000
MTEXTEND
  0
POINT
  5
10349
330
ECBE
100
AcDbEntity
  8
Defpoints
  6
Continuous
 62
     0
100
AcDbPoint
 10
15855.83501901624
 20
3464.677208217617
 30
0.0
  0
POINT
  5
1034A
330
ECBE
100
AcDbEntity
  8
Defpoints
  6
Continuous
 62
     0
100
AcDbPoint
 10
15994.78639982122
 20
3276.480419070525
 30
0.0
  0
POINT
  5
1034B
330
ECBE
100
AcDbEntity
  8
Defpoints
  6
Continuous
 62
     0
100
AcDbPoint
 10
15994.78639982122
 20
3256.158034088104
 30
0.0
  0
ENDBLK
  5
ECC0
330
ECBE
100
AcDbEntity
  8
0
 62
     8
100
AcDbBlockEnd
  0
BLOCK
  5
ECCC
330
ECCB
100
AcDbEntity
  8
0
 62
     8
100
AcDbBlockBegin
  2
*D16
 70
     1
 10
0.0
 20
0.0
 30
0.0
  3
*D16
  1

  0
LINE
  5
1034C
330
ECCB
100
AcDbEntity
  8
KOTA
  6
Continuous
 62
     8
370
    -2
100
AcDbLine
 10
15706.3931322547
 20
3464.677208217617
 30
0.0
 11
15671.95106943711
 21
3464.677208217617
 31
0.0
  0
LINE
  5
1034D
330
ECCB
100
AcDbEntity
  8
KOTA
  6
Continuous
 62
     8
370
    -2
100
AcDbLine
 10
15706.56600473691
 20
3460.677208217614
 30
0.0
 11
15671.95106943711
 21
3460.677208217614
 31
0.0
  0
LINE
  5
1034E
330
ECCB
100
AcDbEntity
  8
KOTA
  6
Continuous
 62
     8
370
    -2
100
AcDbLine
 10
15673.03106943711
 20
3482.677208217617
 30
0.0
 11
15673.03106943711
 21
3500.677208217617
 31
0.0
  0
LINE
  5
1034F
330
ECCB
100
AcDbEntity
  8
KOTA
  6
Continuous
 62
     8
370
    -2
100
AcDbLine
 10
15673.03106943711
 20
3442.677208217614
 30
0.0
 11
15673.03106943711
 21
3423.944411747338
 31
0.0
  0
LINE
  5
10350
330
ECCB
100
AcDbEntity
  8
KOTA
  6
Continuous
 62
     8
370
    -2
100
AcDbLine
 10
15673.03106943711
 20
3464.677208217617
 30
0.0
 11
15673.03106943711
 21
3460.677208217614
 31
0.0
  0
SOLID
  5
10351
330
ECCB
100
AcDbEntity
  8
KOTA
  6
Continuous
 62
     8
100
AcDbTrace
 10
15670.03106943711
 20
3482.677208217617
 30
0.0
 11
15676.03106943711
 21
3482.677208217617
 31
0.0
 12
15673.03106943711
 22
3464.677208217617
 32
0.0
 13
15673.03106943711
 23
3464.677208217617
 33
0.0
  0
SOLID
  5
10352
330
ECCB
100
AcDbEntity
  8
KOTA
  6
Continuous
 62
     8
100
AcDbTrace
 10
15670.03106943711
 20
3442.677208217614
 30
0.0
 11
15676.03106943711
 21
3442.677208217614
 31
0.0
 12
15673.03106943711
 22
3460.677208217614
 32
0.0
 13
15673.03106943711
 23
3460.677208217614
 33
0.0
  0
MTEXT
  5
10353
330
ECCB
100
AcDbEntity
  8
KOTA
  6
Continuous
 62
     9
100
AcDbMText
 10
15673.03106943711
 20
3408.260180978109
 30
0.0
 40
21.0
 41
0.0
 71
     5
 72
     1
  1
\A1;~1
 11
0.0000000000000001
 21
1.0
 31
0.0
 73
     1
 44
1.0
1001
ACAD
1000
MTEXTBEGIN
1070
    73
1070
     1
1070
    44
1040
1.0
1070
    74
1070
     0
1000
MTEXTEND
  0
POINT
  5
10354
330
ECCB
100
AcDbEntity
  8
Defpoints
  6
Continuous
 62
     0
100
AcDbPoint
 10
15706.7681322547
 20
3464.677208217617
 30
0.0
  0
POINT
  5
10355
330
ECCB
100
AcDbEntity
  8
Defpoints
  6
Continuous
 62
     0
100
AcDbPoint
 10
15706.94100473691
 20
3460.677208217614
 30
0.0
  0
POINT
  5
10356
330
ECCB
100
AcDbEntity
  8
Defpoints
  6
Continuous
 62
     0
100
AcDbPoint
 10
15673.03106943711
 20
3460.677208217614
 30
0.0
  0
ENDBLK
  5
ECCD
330
ECCB
100
AcDbEntity
  8
0
 62
     8
100
AcDbBlockEnd
  0
BLOCK
  5
ECDA
330
ECD9
100
AcDbEntity
  8
0
 62
     8
100
AcDbBlockBegin
  2
*D17
 70
     1
 10
0.0
 20
0.0
 30
0.0
  3
*D17
  1

  0
LINE
  5
10357
330
ECD9
100
AcDbEntity
  8
KOTA
  6
Continuous
 62
     8
370
    -2
100
AcDbLine
 10
16410.59827480227
 20
2875.296094061702
 30
0.0
 11
16226.76861326403
 21
2875.296094061702
 31
0.0
  0
LINE
  5
10358
330
ECD9
100
AcDbEntity
  8
KOTA
  6
Continuous
 62
     8
370
    -2
100
AcDbLine
 10
16269.82871427705
 20
2871.296094061675
 30
0.0
 11
16226.76861326403
 21
2871.296094061675
 31
0.0
  0
LINE
  5
10359
330
ECD9
100
AcDbEntity
  8
KOTA
  6
Continuous
 62
     8
370
    -2
100
AcDbLine
 10
16227.84861326403
 20
2893.296094061702
 30
0.0
 11
16227.84861326403
 21
2911.296094061702
 31
0.0
  0
LINE
  5
1035A
330
ECD9
100
AcDbEntity
  8
KOTA
  6
Continuous
 62
     8
370
    -2
100
AcDbLine
 10
16227.84861326403
 20
2853.296094061675
 30
0.0
 11
16227.84861326403
 21
2835.296094061675
 31
0.0
  0
LINE
  5
1035B
330
ECD9
100
AcDbEntity
  8
KOTA
  6
Continuous
 62
     8
370
    -2
100
AcDbLine
 10
16227.84861326403
 20
2875.296094061702
 30
0.0
 11
16227.84861326403
 21
2871.296094061675
 31
0.0
  0
SOLID
  5
1035C
330
ECD9
100
AcDbEntity
  8
KOTA
  6
Continuous
 62
     8
100
AcDbTrace
 10
16224.84861326403
 20
2893.296094061702
 30
0.0
 11
16230.84861326403
 21
2893.296094061702
 31
0.0
 12
16227.84861326403
 22
2875.296094061702
 32
0.0
 13
16227.84861326403
 23
2875.296094061702
 33
0.0
  0
SOLID
  5
1035D
330
ECD9
100
AcDbEntity
  8
KOTA
  6
Continuous
 62
     8
100
AcDbTrace
 10
16224.84861326403
 20
2853.296094061675
 30
0.0
 11
16230.84861326403
 21
2853.296094061675
 31
0.0
 12
16227.84861326403
 22
2871.296094061675
 32
0.0
 13
16227.84861326403
 23
2871.296094061675
 33
0.0
  0
MTEXT
  5
1035E
330
ECD9
100
AcDbEntity
  8
KOTA
  6
Continuous
 62
     9
100
AcDbMText
 10
16227.84861326403
 20
2819.611863292447
 30
0.0
 40
21.0
 41
0.0
 71
     5
 72
     1
  1
\A1;~1
 11
0.0000000000000001
 21
1.0
 31
0.0
 73
     1
 44
1.0
1001
ACAD
1000
MTEXTBEGIN
1070
    73
1070
     1
1070
    44
1040
1.0
1070
    74
1070
     0
1000
MTEXTEND
  0
POINT
  5
1035F
330
ECD9
100
AcDbEntity
  8
Defpoints
  6
Continuous
 62
     0
100
AcDbPoint
 10
16410.97327480227
 20
2875.296094061702
 30
0.0
  0
POINT
  5
10360
330
ECD9
100
AcDbEntity
  8
Defpoints
  6
Continuous
 62
     0
100
AcDbPoint
 10
16270.20371427705
 20
2871.296094061675
 30
0.0
  0
POINT
  5
10361
330
ECD9
100
AcDbEntity
  8
Defpoints
  6
Continuous
 62
     0
100
AcDbPoint
 10
16227.84861326403
 20
2871.296094061675
 30
0.0
  0
ENDBLK
  5
ECDB
330
ECD9
100
AcDbEntity
  8
0
 62
     8
100
AcDbBlockEnd
  0
BLOCK
  5
ECE8
330
ECE7
100
AcDbEntity
  8
0
 62
     8
100
AcDbBlockBegin
  2
*D18
 70
     1
 10
0.0
 20
0.0
 30
0.0
  3
*D18
  1

  0
LINE
  5
1036D
330
ECE7
100
AcDbEntity
  8
KOTA
  6
Continuous
 62
     8
370
    -2
100
AcDbLine
 10
16273.60608929609
 20
2502.209292789153
 30
0.0
 11
16233.80655010018
 21
2502.209292789153
 31
0.0
  0
LINE
  5
1036E
330
ECE7
100
AcDbEntity
  8
KOTA
  6
Continuous
 62
     8
370
    -2
100
AcDbLine
 10
16274.26176125463
 20
2498.209292789127
 30
0.0
 11
16233.80655010018
 21
2498.209292789127
 31
0.0
  0
LINE
  5
1036F
330
ECE7
100
AcDbEntity
  8
KOTA
  6
Continuous
 62
     8
370
    -2
100
AcDbLine
 10
16234.88655010018
 20
2520.209292789153
 30
0.0
 11
16234.88655010018
 21
2538.209292789153
 31
0.0
  0
LINE
  5
10370
330
ECE7
100
AcDbEntity
  8
KOTA
  6
Continuous
 62
     8
370
    -2
100
AcDbLine
 10
16234.88655010018
 20
2480.209292789127
 30
0.0
 11
16234.88655010018
 21
2462.209292789127
 31
0.0
  0
LINE
  5
10371
330
ECE7
100
AcDbEntity
  8
KOTA
  6
Continuous
 62
     8
370
    -2
100
AcDbLine
 10
16234.88655010018
 20
2502.209292789153
 30
0.0
 11
16234.88655010018
 21
2498.209292789127
 31
0.0
  0
SOLID
  5
10372
330
ECE7
100
AcDbEntity
  8
KOTA
  6
Continuous
 62
     8
100
AcDbTrace
 10
16231.88655010018
 20
2520.209292789153
 30
0.0
 11
16237.88655010018
 21
2520.209292789153
 31
0.0
 12
16234.88655010018
 22
2502.209292789153
 32
0.0
 13
16234.88655010018
 23
2502.209292789153
 33
0.0
  0
SOLID
  5
10373
330
ECE7
100
AcDbEntity
  8
KOTA
  6
Continuous
 62
     8
100
AcDbTrace
 10
16231.88655010018
 20
2480.209292789127
 30
0.0
 11
16237.88655010018
 21
2480.209292789127
 31
0.0
 12
16234.88655010018
 22
2498.209292789127
 32
0.0
 13
16234.88655010018
 23
2498.209292789127
 33
0.0
  0
MTEXT
  5
10374
330
ECE7
100
AcDbEntity
  8
KOTA
  6
Continuous
 62
     9
100
AcDbMText
 10
16234.88655010018
 20
2446.525062019899
 30
0.0
 40
21.0
 41
0.0
 71
     5
 72
     1
  1
\A1;~1
 11
0.0000000000000001
 21
1.0
 31
0.0
 73
     1
 44
1.0
1001
ACAD
1000
MTEXTBEGIN
1070
    73
1070
     1
1070
    44
1040
1.0
1070
    74
1070
     0
1000
MTEXTEND
  0
POINT
  5
10375
330
ECE7
100
AcDbEntity
  8
Defpoints
  6
Continuous
 62
     0
100
AcDbPoint
 10
16273.98108929609
 20
2502.209292789153
 30
0.0
  0
POINT
  5
10376
330
ECE7
100
AcDbEntity
  8
Defpoints
  6
Continuous
 62
     0
100
AcDbPoint
 10
16274.63676125463
 20
2498.209292789127
 30
0.0
  0
POINT
  5
10377
330
ECE7
100
AcDbEntity
  8
Defpoints
  6
Continuous
 62
     0
100
AcDbPoint
 10
16234.88655010018
 20
2498.209292789127
 30
0.0
  0
ENDBLK
  5
ECE9
330
ECE7
100
AcDbEntity
  8
0
 62
     8
100
AcDbBlockEnd
  0
BLOCK
  5
ECF6
330
ECF5
100
AcDbEntity
  8
0
 62
     8
100
AcDbBlockBegin
  2
*D19
 70
     1
 10
0.0
 20
0.0
 30
0.0
  3
*D19
  1

  0
LINE
  5
10378
330
ECF5
100
AcDbEntity
  8
KOTA
  6
Continuous
 62
     8
370
    -2
100
AcDbLine
 10
16650.64112471334
 20
2502.209292789153
 30
0.0
 11
16710.79505941983
 21
2502.209292789153
 31
0.0
  0
LINE
  5
10379
330
ECF5
100
AcDbEntity
  8
KOTA
  6
Continuous
 62
     8
370
    -2
100
AcDbLine
 10
16638.31962330253
 20
2534.209292789093
 30
0.0
 11
16710.79505941983
 21
2534.209292789093
 31
0.0
  0
LINE
  5
1037A
330
ECF5
100
AcDbEntity
  8
KOTA
  6
Continuous
 62
     8
370
    -2
100
AcDbLine
 10
16709.71505941983
 20
2552.209292789093
 30
0.0
 11
16709.71505941983
 21
2570.209292789093
 31
0.0
  0
LINE
  5
1037B
330
ECF5
100
AcDbEntity
  8
KOTA
  6
Continuous
 62
     8
370
    -2
100
AcDbLine
 10
16709.71505941983
 20
2484.209292789153
 30
0.0
 11
16709.71505941983
 21
2466.046627872465
 31
0.0
  0
LINE
  5
1037C
330
ECF5
100
AcDbEntity
  8
KOTA
  6
Continuous
 62
     8
370
    -2
100
AcDbLine
 10
16709.71505941983
 20
2534.209292789093
 30
0.0
 11
16709.71505941983
 21
2502.209292789153
 31
0.0
  0
SOLID
  5
1037D
330
ECF5
100
AcDbEntity
  8
KOTA
  6
Continuous
 62
     8
100
AcDbTrace
 10
16706.71505941983
 20
2552.209292789093
 30
0.0
 11
16712.71505941983
 21
2552.209292789093
 31
0.0
 12
16709.71505941983
 22
2534.209292789093
 32
0.0
 13
16709.71505941983
 23
2534.209292789093
 33
0.0
  0
SOLID
  5
1037E
330
ECF5
100
AcDbEntity
  8
KOTA
  6
Continuous
 62
     8
100
AcDbTrace
 10
16706.71505941983
 20
2484.209292789153
 30
0.0
 11
16712.71505941983
 21
2484.209292789153
 31
0.0
 12
16709.71505941983
 22
2502.209292789153
 32
0.0
 13
16709.71505941983
 23
2502.209292789153
 33
0.0
  0
MTEXT
  5
1037F
330
ECF5
100
AcDbEntity
  8
KOTA
  6
Continuous
 62
     9
100
AcDbMText
 10
16709.71505941983
 20
2450.168550949391
 30
0.0
 40
21.0
 41
0.0
 71
     5
 72
     1
  1
\A1;~8
 11
0.0000000000000001
 21
1.0
 31
0.0
 73
     1
 44
1.0
1001
ACAD
1000
MTEXTBEGIN
1070
    73
1070
     1
1070
    44
1040
1.0
1070
    74
1070
     0
1000
MTEXTEND
  0
POINT
  5
10380
330
ECF5
100
AcDbEntity
  8
Defpoints
  6
Continuous
 62
     0
100
AcDbPoint
 10
16650.26612471334
 20
2502.209292789153
 30
0.0
  0
POINT
  5
10381
330
ECF5
100
AcDbEntity
  8
Defpoints
  6
Continuous
 62
     0
100
AcDbPoint
 10
16637.94462330253
 20
2534.209292789093
 30
0.0
  0
POINT
  5
10382
330
ECF5
100
AcDbEntity
  8
Defpoints
  6
Continuous
 62
     0
100
AcDbPoint
 10
16709.71505941983
 20
2534.209292789093
 30
0.0
  0
ENDBLK
  5
ECF7
330
ECF5
100
AcDbEntity
  8
0
 62
     8
100
AcDbBlockEnd
  0
BLOCK
  5
ED75
330
ED74
100
AcDbEntity
  8
0
 62
     8
100
AcDbBlockBegin
  2
*D20
 70
     1
 10
0.0
 20
0.0
 30
0.0
  3
*D20
  1

  0
LINE
  5
10362
330
ED74
100
AcDbEntity
  8
KOTA
  6
Continuous
 62
     8
370
    -2
100
AcDbLine
 10
16477.26929074497
 20
2875.296094061702
 30
0.0
 11
16692.03074566716
 21
2875.296094061702
 31
0.0
  0
LINE
  5
10363
330
ED74
100
AcDbEntity
  8
KOTA
  6
Continuous
 62
     8
370
    -2
100
AcDbLine
 10
16644.14555288619
 20
2843.296094061678
 30
0.0
 11
16692.03074566716
 21
2843.296094061678
 31
0.0
  0
LINE
  5
10364
330
ED74
100
AcDbEntity
  8
KOTA
  6
Continuous
 62
     8
370
    -2
100
AcDbLine
 10
16690.95074566716
 20
2893.296094061702
 30
0.0
 11
16690.95074566716
 21
2911.296094061702
 31
0.0
  0
LINE
  5
10365
330
ED74
100
AcDbEntity
  8
KOTA
  6
Continuous
 62
     8
370
    -2
100
AcDbLine
 10
16690.95074566716
 20
2825.296094061678
 30
0.0
 11
16690.95074566716
 21
2807.296094061678
 31
0.0
  0
LINE
  5
10366
330
ED74
100
AcDbEntity
  8
KOTA
  6
Continuous
 62
     8
370
    -2
100
AcDbLine
 10
16690.95074566716
 20
2875.296094061702
 30
0.0
 11
16690.95074566716
 21
2843.296094061678
 31
0.0
  0
SOLID
  5
10367
330
ED74
100
AcDbEntity
  8
KOTA
  6
Continuous
 62
     8
100
AcDbTrace
 10
16687.95074566716
 20
2893.296094061702
 30
0.0
 11
16693.95074566716
 21
2893.296094061702
 31
0.0
 12
16690.95074566716
 22
2875.296094061702
 32
0.0
 13
16690.95074566716
 23
2875.296094061702
 33
0.0
  0
SOLID
  5
10368
330
ED74
100
AcDbEntity
  8
KOTA
  6
Continuous
 62
     8
100
AcDbTrace
 10
16687.95074566716
 20
2825.296094061678
 30
0.0
 11
16693.95074566716
 21
2825.296094061678
 31
0.0
 12
16690.95074566716
 22
2843.296094061678
 32
0.0
 13
16690.95074566716
 23
2843.296094061678
 33
0.0
  0
MTEXT
  5
10369
102
{ACAD_XDICTIONARY
360
10419
102
}
330
ED74
100
AcDbEntity
  8
KOTA
  6
Continuous
 62
     9
100
AcDbMText
 10
16690.95074566716
 20
2783.559170984757
 30
0.0
 40
21.0
 41
0.0
 71
     5
 72
     1
  1
\A1;2\U+00F78
 11
0.0000000000000001
 21
1.0
 31
0.0
 73
     1
 44
1.0
1001
ACAD
1000
MTEXTBEGIN
1070
    73
1070
     1
1070
    44
1040
1.0
1070
    74
1070
     0
1000
MTEXTEND
  0
POINT
  5
1036A
330
ED74
100
AcDbEntity
  8
Defpoints
  6
Continuous
 62
     0
100
AcDbPoint
 10
16476.89429074497
 20
2875.296094061702
 30
0.0
  0
POINT
  5
1036B
330
ED74
100
AcDbEntity
  8
Defpoints
  6
Continuous
 62
     0
100
AcDbPoint
 10
16643.77055288619
 20
2843.296094061678
 30
0.0
  0
POINT
  5
1036C
330
ED74
100
AcDbEntity
  8
Defpoints
  6
Continuous
 62
     0
100
AcDbPoint
 10
16690.95074566716
 20
2843.296094061678
 30
0.0
  0
ENDBLK
  5
ED76
330
ED74
100
AcDbEntity
  8
0
 62
     8
100
AcDbBlockEnd
  0
BLOCK
  5
10108
330
10107
100
AcDbEntity
  8
0
 62
     8
100
AcDbBlockBegin
  2
*D21
 70
     1
 10
0.0
 20
0.0
 30
0.0
  3
*D21
  1

  0
LINE
  5
10383
330
10107
100
AcDbEntity
  8
KOTA
 62
     8
370
    -2
100
AcDbLine
 10
14968.62161798221
 20
2941.951206870184
 30
0.0
 11
15170.99673188242
 21
2941.951206870184
 31
0.0
  0
LINE
  5
10384
330
10107
100
AcDbEntity
  8
KOTA
 62
     8
370
    -2
100
AcDbLine
 10
14968.62161798221
 20
2618.951206870185
 30
0.0
 11
15170.99673188242
 21
2618.951206870185
 31
0.0
  0
LINE
  5
10385
330
10107
100
AcDbEntity
  8
KOTA
 62
     8
370
    -2
100
AcDbLine
 10
15169.55673188242
 20
2917.951206870184
 30
0.0
 11
15169.55673188242
 21
2813.718900467999
 31
0.0
  0
LINE
  5
10386
330
10107
100
AcDbEntity
  8
KOTA
 62
     8
370
    -2
100
AcDbLine
 10
15169.55673188242
 20
2642.951206870185
 30
0.0
 11
15169.55673188242
 21
2750.743515852615
 31
0.0
  0
SOLID
  5
10387
330
10107
100
AcDbEntity
  8
KOTA
 62
     8
100
AcDbTrace
 10
15165.55673188242
 20
2917.951206870184
 30
0.0
 11
15173.55673188242
 21
2917.951206870184
 31
0.0
 12
15169.55673188242
 22
2941.951206870184
 32
0.0
 13
15169.55673188242
 23
2941.951206870184
 33
0.0
  0
SOLID
  5
10388
330
10107
100
AcDbEntity
  8
KOTA
 62
     8
100
AcDbTrace
 10
15165.55673188242
 20
2642.951206870185
 30
0.0
 11
15173.55673188242
 21
2642.951206870185
 31
0.0
 12
15169.55673188242
 22
2618.951206870185
 32
0.0
 13
15169.55673188242
 23
2618.951206870185
 33
0.0
  0
MTEXT
  5
10389
330
10107
100
AcDbEntity
  8
KOTA
 62
     9
100
AcDbMText
 10
15169.55673188242
 20
2782.231208160309
 30
0.0
 40
28.0
 41
0.0
 71
     5
 72
     1
  1
\A1;323
 11
0.0000000000000001
 21
1.0
 31
0.0
 73
     1
 44
1.0
1001
ACAD
1000
MTEXTBEGIN
1070
    73
1070
     1
1070
    44
1040
1.0
1070
    74
1070
     0
1000
MTEXTEND
  0
POINT
  5
1038A
330
10107
100
AcDbEntity
  8
Defpoints
 62
     0
100
AcDbPoint
 10
14968.12161798221
 20
2941.951206870184
 30
0.0
  0
POINT
  5
1038B
330
10107
100
AcDbEntity
  8
Defpoints
 62
     0
100
AcDbPoint
 10
14968.12161798221
 20
2618.951206870185
 30
0.0
  0
POINT
  5
1038C
330
10107
100
AcDbEntity
  8
Defpoints
 62
     0
100
AcDbPoint
 10
15169.55673188242
 20
2618.951206870185
 30
0.0
  0
ENDBLK
  5
10109
330
10107
100
AcDbEntity
  8
0
 62
     8
100
AcDbBlockEnd
  0
BLOCK
  5
10120
330
1011F
100
AcDbEntity
  8
0
 62
     8
100
AcDbBlockBegin
  2
*D22
 70
     1
 10
0.0
 20
0.0
 30
0.0
  3
*D22
  1

  0
LINE
  5
1038D
330
1011F
100
AcDbEntity
  8
KOTA
 62
     8
370
    -2
100
AcDbLine
 10
14863.6216179822
 20
2684.951206870187
 30
0.0
 11
14863.6216179822
 21
2488.95028618383
 31
0.0
  0
LINE
  5
1038E
330
1011F
100
AcDbEntity
  8
KOTA
 62
     8
370
    -2
100
AcDbLine
 10
15034.62161798221
 20
2684.951206870184
 30
0.0
 11
15034.62161798221
 21
2488.95028618383
 31
0.0
  0
LINE
  5
1038F
330
1011F
100
AcDbEntity
  8
KOTA
 62
     8
370
    -2
100
AcDbLine
 10
14887.6216179822
 20
2490.39028618383
 30
0.0
 11
14916.16322795866
 21
2490.39028618383
 31
0.0
  0
LINE
  5
10390
330
1011F
100
AcDbEntity
  8
KOTA
 62
     8
370
    -2
100
AcDbLine
 10
15010.62161798221
 20
2490.39028618383
 30
0.0
 11
14978.01861257404
 21
2490.39028618383
 31
0.0
  0
SOLID
  5
10391
330
1011F
100
AcDbEntity
  8
KOTA
 62
     8
100
AcDbTrace
 10
14887.6216179822
 20
2494.39028618383
 30
0.0
 11
14887.6216179822
 21
2486.39028618383
 31
0.0
 12
14863.6216179822
 22
2490.39028618383
 32
0.0
 13
14863.6216179822
 23
2490.39028618383
 33
0.0
  0
SOLID
  5
10392
330
1011F
100
AcDbEntity
  8
KOTA
 62
     8
100
AcDbTrace
 10
15010.62161798221
 20
2494.39028618383
 30
0.0
 11
15010.62161798221
 21
2486.39028618383
 31
0.0
 12
15034.62161798221
 22
2490.39028618383
 32
0.0
 13
15034.62161798221
 23
2490.39028618383
 33
0.0
  0
MTEXT
  5
10393
330
1011F
100
AcDbEntity
  8
KOTA
 62
     9
100
AcDbMText
 10
14947.09092026635
 20
2490.39028618383
 30
0.0
 40
28.0
 41
0.0
 71
     5
 72
     1
  1
\A1;171
 73
     1
 44
1.0
1001
ACAD
1000
MTEXTBEGIN
1070
    73
1070
     1
1070
    44
1040
1.0
1070
    74
1070
     0
1000
MTEXTEND
  0
POINT
  5
10394
330
1011F
100
AcDbEntity
  8
Defpoints
 62
     0
100
AcDbPoint
 10
14863.6216179822
 20
2685.451206870187
 30
0.0
  0
POINT
  5
10395
330
1011F
100
AcDbEntity
  8
Defpoints
 62
     0
100
AcDbPoint
 10
15034.62161798221
 20
2685.451206870184
 30
0.0
  0
POINT
  5
10396
330
1011F
100
AcDbEntity
  8
Defpoints
 62
     0
100
AcDbPoint
 10
15034.62161798221
 20
2490.39028618383
 30
0.0
  0
ENDBLK
  5
10121
330
1011F
100
AcDbEntity
  8
0
 62
     8
100
AcDbBlockEnd
  0
ENDSEC
  0
SECTION
  2
ENTITIES
  0
DIMENSION
  5
ADC9
330
75
100
AcDbEntity
  8
KOTA
100
AcDbDimension
  2
*D4
 10
15023.0416179822
 20
2556.987501270713
 30
0.0
 11
14947.09092026635
 21
2556.987501270713
 31
0.0
 70
   160
 71
     5
 42
147.8400000000001
  3
STANDARD
100
AcDbAlignedDimension
 13
14875.2016179822
 23
2685.451206870187
 33
0.0
 14
15023.0416179822
 24
2685.451206870184
 34
0.0
100
AcDbRotatedDimension
  0
DIMENSION
  5
ADCA
330
75
100
AcDbEntity
  8
KOTA
100
AcDbDimension
  2
*D5
 10
15101.77238314651
 20
2630.531206870185
 30
0.0
 11
15101.77238314651
 21
2782.231208160309
 31
0.0
 70
   160
 71
     5
 42
299.8399999999997
  3
STANDARD
100
AcDbAlignedDimension
 13
14968.12161798221
 23
2930.371206870185
 33
0.0
 14
14968.12161798221
 24
2630.531206870185
 34
0.0
 50
90.0
100
AcDbRotatedDimension
  0
DIMENSION
  5
ADCB
330
75
100
AcDbEntity
  8
KOTA
100
AcDbDimension
  2
*D6
 10
15091.94262870112
 20
3016.495653525141
 30
0.0
 11
15091.94262870112
 21
3079.603576763213
 31
0.0
 70
   160
 71
     5
 42
120.2148265998244
  3
STANDARD
100
AcDbAlignedDimension
 13
15024.70689362862
 23
3136.710480124965
 33
0.0
 14
15009.36851396097
 24
3016.495653525141
 34
0.0
 50
90.0
100
AcDbRotatedDimension
  0
DIMENSION
  5
ADCC
330
75
100
AcDbEntity
  8
izrez dim
100
AcDbDimension
  2
*D7
 10
15453.01191512978
 20
2549.292871311497
 30
0.0
 11
15380.57467892105
 21
2549.292871311497
 31
0.0
 70
   160
 71
     5
 42
147.8400000000219
  3
STANDARD
100
AcDbAlignedDimension
 13
15305.17191512976
 23
2685.451206870184
 33
0.0
 14
15453.01191512978
 24
2685.451206870182
 34
0.0
100
AcDbRotatedDimension
  0
DIMENSION
  5
ADCD
330
75
100
AcDbEntity
  8
izrez dim
100
AcDbDimension
  2
*D8
 10
15522.65771854523
 20
2630.531206870182
 30
0.0
 11
15522.65771854523
 21
2782.930739179654
 31
0.0
 70
   160
 71
     5
 42
299.8400000000001
  3
STANDARD
100
AcDbAlignedDimension
 13
15398.09191512977
 23
2930.371206870182
 33
0.0
 14
15398.09191512977
 24
2630.531206870182
 34
0.0
 50
90.0
100
AcDbRotatedDimension
  0
POLYLINE
  5
ADCE
330
75
100
AcDbEntity
  8
IZREZ
100
AcDb2dPolyline
 66
     1
 10
0.0
 20
0.0
 30
0.0
 70
     1
  0
VERTEX
  5
ADCF
330
ADCE
100
AcDbEntity
  8
IZREZ
100
AcDbVertex
100
AcDb2dVertex
 10
15360.09191512976
 20
2930.371206870182
 30
0.0
 42
0.4142135623730951
  0
VERTEX
  5
ADD0
330
ADCE
100
AcDbEntity
  8
IZREZ
100
AcDbVertex
100
AcDb2dVertex
 10
15305.17191512976
 20
2875.451206870184
 30
0.0
  0
VERTEX
  5
ADD1
330
ADCE
100
AcDbEntity
  8
IZREZ
100
AcDbVertex
100
AcDb2dVertex
 10
15305.17191512976
 20
2685.451206870184
 30
0.0
 42
0.4142135623730951
  0
VERTEX
  5
ADD2
330
ADCE
100
AcDbEntity
  8
IZREZ
100
AcDbVertex
100
AcDb2dVertex
 10
15360.09191512976
 20
2630.531206870184
 30
0.0
  0
VERTEX
  5
ADD3
330
ADCE
100
AcDbEntity
  8
IZREZ
100
AcDbVertex
100
AcDb2dVertex
 10
15398.09191512977
 20
2630.531206870182
 30
0.0
 42
0.4142135623730951
  0
VERTEX
  5
ADD4
330
ADCE
100
AcDbEntity
  8
IZREZ
100
AcDbVertex
100
AcDb2dVertex
 10
15453.01191512978
 20
2685.451206870182
 30
0.0
  0
VERTEX
  5
ADD5
330
ADCE
100
AcDbEntity
  8
IZREZ
100
AcDbVertex
100
AcDb2dVertex
 10
15453.01191512977
 20
2875.451206870181
 30
0.0
 42
0.4142135623730951
  0
VERTEX
  5
ADD6
330
ADCE
100
AcDbEntity
  8
IZREZ
100
AcDbVertex
100
AcDb2dVertex
 10
15398.09191512977
 20
2930.371206870182
 30
0.0
  0
SEQEND
  5
ADD7
330
ADCE
100
AcDbEntity
  8
IZREZ
  0
DIMENSION
  5
ADD8
330
75
100
AcDbEntity
  8
izrez dim
 62
     9
100
AcDbDimension
  2
*D9
 10
15360.09191512978
 20
2875.451206870176
 30
0.0
 11
15403.68759616916
 21
2828.350368292595
 31
0.0
 70
   164
 71
     5
 42
54.92000000001644
  3
STANDARD
100
AcDbRadialDimension
 15
15322.78629339896
 25
2915.756256023835
 35
0.0
 40
0.0
1001
ACAD_DSTYLE_DIMRADIAL_EXTENSION
1070
   387
1070
     1
1070
   388
1040
1.570796326794861
1070
   390
1040
3.141592653589792
  0
CIRCLE
  5
E21D
330
75
100
AcDbEntity
  8
0
  6
Continuous
100
AcDbCircle
 10
14949.1216179822
 20
2780.451206870186
 30
0.0
 40
46.0
  0
CIRCLE
  5
E21E
330
75
100
AcDbEntity
  8
0
  6
Continuous
 62
     3
100
AcDbCircle
 10
14949.1216179822
 20
2780.451206870186
 30
0.0
 40
57.4386159127
  0
POLYLINE
  5
E21F
330
75
100
AcDbEntity
  8
0
100
AcDb2dPolyline
 66
     1
 10
0.0
 20
0.0
 30
0.0
 70
     1
  0
VERTEX
  5
E220
330
E21F
100
AcDbEntity
  8
0
100
AcDbVertex
100
AcDb2dVertex
 10
14930.12161798221
 20
2930.371206870185
 30
0.0
 42
0.4142135623730951
  0
VERTEX
  5
E221
330
E21F
100
AcDbEntity
  8
0
100
AcDbVertex
100
AcDb2dVertex
 10
14875.2016179822
 20
2875.451206870187
 30
0.0
  0
VERTEX
  5
E222
330
E21F
100
AcDbEntity
  8
0
100
AcDbVertex
100
AcDb2dVertex
 10
14875.2016179822
 20
2685.451206870187
 30
0.0
 42
0.4142135623730951
  0
VERTEX
  5
E223
330
E21F
100
AcDbEntity
  8
0
100
AcDbVertex
100
AcDb2dVertex
 10
14930.1216179822
 20
2630.531206870186
 30
0.0
  0
VERTEX
  5
E224
330
E21F
100
AcDbEntity
  8
0
100
AcDbVertex
100
AcDb2dVertex
 10
14968.12161798221
 20
2630.531206870185
 30
0.0
 42
0.4142135623730951
  0
VERTEX
  5
E225
330
E21F
100
AcDbEntity
  8
0
100
AcDbVertex
100
AcDb2dVertex
 10
15023.0416179822
 20
2685.451206870184
 30
0.0
  0
VERTEX
  5
E226
330
E21F
100
AcDbEntity
  8
0
100
AcDbVertex
100
AcDb2dVertex
 10
15023.0416179822
 20
2875.451206870184
 30
0.0
 42
0.4142135623730951
  0
VERTEX
  5
E227
330
E21F
100
AcDbEntity
  8
0
100
AcDbVertex
100
AcDb2dVertex
 10
14968.12161798221
 20
2930.371206870185
 30
0.0
  0
SEQEND
  5
E228
330
E21F
100
AcDbEntity
  8
0
  0
LWPOLYLINE
  5
E229
330
75
100
AcDbEntity
  8
0
 48
2.0
100
AcDbPolyline
 90
        8
 70
     1
 43
0.0
 10
14863.6216179822
 20
2685.451206870187
 42
0.4142135623730951
 10
14930.1216179822
 20
2618.951206870187
 10
14968.12161798221
 20
2618.951206870185
 42
0.4142135623730951
 10
15034.62161798221
 20
2685.451206870184
 10
15034.62161798221
 20
2875.451206870184
 42
0.4142135623730951
 10
14968.12161798221
 20
2941.951206870184
 10
14930.12161798221
 20
2941.951206870189
 42
0.4142135623730951
 10
14863.6216179822
 20
2875.451206870184
  0
LINE
  5
E22A
330
75
100
AcDbEntity
  8
0
  6
CENTER
 62
     2
100
AcDbLine
 10
15033.95597917917
 20
2768.651206870189
 30
0.0
 11
15012.12725678524
 21
2768.651206870189
 31
0.0
  0
LINE
  5
E22B
330
75
100
AcDbEntity
  8
0
  6
CENTER
 62
     2
100
AcDbLine
 10
15033.95597917917
 20
2758.35120687019
 30
0.0
 11
15012.12725678524
 21
2758.35120687019
 31
0.0
  0
LINE
  5
E22C
330
75
100
AcDbEntity
  8
0
  6
CENTER
 62
     2
100
AcDbLine
 10
15033.95597917917
 20
2792.251206870188
 30
0.0
 11
15012.12725678524
 21
2792.251206870188
 31
0.0
  0
LINE
  5
E22D
330
75
100
AcDbEntity
  8
0
  6
CENTER
 62
     2
100
AcDbLine
 10
15033.95597917917
 20
2802.551206870188
 30
0.0
 11
15012.12725678524
 21
2802.551206870188
 31
0.0
  0
LINE
  5
E22E
330
75
100
AcDbEntity
  8
0
  6
CENTER
 62
     2
100
AcDbLine
 10
15033.95597917917
 20
2780.451206870187
 30
0.0
 11
15012.12725678524
 21
2780.451206870187
 31
0.0
  0
MTEXT
  5
E22F
330
75
100
AcDbEntity
  8
0
 62
     8
100
AcDbMText
 10
14896.33177948775
 20
2671.380301436347
 30
0.0
 40
15.0
 41
0.0
 71
     1
 72
     5
  1
Variant 110
 11
0.9998683908260041
 21
0.0162234714847751
 31
0.0
 73
     1
 44
1.0
1001
ACAD
1000
MTEXTBEGIN
1070
    73
1070
     1
1070
    44
1040
1.0
1070
    74
1070
     0
1000
MTEXTEND
  0
LINE
  5
E230
330
75
100
AcDbEntity
  8
0
 62
     2
100
AcDbLine
 10
14994.1216179822
 20
3011.793375791805
 30
0.0
 11
14904.1216179822
 21
3011.793375791805
 31
0.0
  0
LINE
  5
E231
330
75
100
AcDbEntity
  8
0
 62
     2
100
AcDbLine
 10
14994.1216179822
 20
3012.493375791804
 30
0.0
 11
14904.1216179822
 21
3012.493375791804
 31
0.0
  0
LINE
  5
E232
330
75
100
AcDbEntity
  8
0
 62
     3
100
AcDbLine
 10
15009.36851396097
 20
3016.495653525141
 30
0.0
 11
14888.95215885441
 21
3016.492949370718
 31
0.0
  0
LINE
  5
E233
330
75
100
AcDbEntity
  8
0
 62
     2
100
AcDbLine
 10
15006.6216179822
 20
3014.993375791804
 30
0.0
 11
14891.6216179822
 21
3014.993375791804
 31
0.0
  0
LINE
  5
E234
330
75
100
AcDbEntity
  8
0
100
AcDbLine
 10
14873.53634233576
 20
3136.710480124965
 30
0.0
 11
15024.70689362864
 21
3136.710480124965
 31
0.0
  0
LWPOLYLINE
  5
E235
330
75
100
AcDbEntity
  8
0
 62
     3
100
AcDbPolyline
 90
       18
 70
     1
 43
0.0
 10
14888.92772920673
 20
3015.793375791806
 10
14891.21691208396
 20
3014.41986606547
 42
0.0859668243877067
 10
14891.53529170424
 20
3014.296778315491
 10
14904.1216179822
 20
3011.793375791805
 10
14904.1216179822
 20
3012.493375791804
 10
14891.6216179822
 20
3014.993375791804
 10
14889.28787623553
 20
3016.393620839803
 42
0.1270553699128671
 10
14888.95215885441
 20
3016.492949370719
 10
14888.01404680835
 20
3016.525708965238
 42
-0.3838640350353778
 10
14883.20072404056
 20
3021.173880731613
 10
14875.23220122121
 20
3135.129066130329
 42
0.3939104756149904
 10
14873.53634233576
 20
3136.710480124965
 10
14863.6216179822
 20
3136.710480124965
 10
14863.6216179822
 20
3136.010480124967
 10
14873.53634233576
 20
3136.010480124967
 42
-0.3939104756150256
 10
14874.53390638602
 20
3135.080236598711
 10
14882.50242920539
 20
3021.125051199991
 42
0.3838640350354987
 10
14887.98961716067
 20
3015.826135386324
  0
LWPOLYLINE
  5
E236
330
75
100
AcDbEntity
  8
0
 62
     3
100
AcDbPolyline
 90
       18
 70
     1
 43
0.0
 10
15007.02632388044
 20
3014.41986606547
 42
-0.0859668243877351
 10
15006.70794426015
 20
3014.296778315491
 10
14994.1216179822
 20
3011.793375791805
 10
14994.1216179822
 20
3012.493375791804
 10
15006.6216179822
 20
3014.993375791804
 10
15008.88891770225
 20
3016.353755623836
 42
-0.1270553699127011
 10
15009.36851396097
 20
3016.495653525144
 10
15010.22918915604
 20
3016.525708965236
 42
0.3838640350354299
 10
15015.04251192382
 20
3021.173880731611
 10
15023.01103474318
 20
3135.129066130331
 42
-0.3939104756146824
 10
15024.70689362864
 20
3136.710480124965
 10
15034.6216179822
 20
3136.710480124965
 10
15034.6216179822
 20
3136.010480124967
 10
15024.70689362862
 20
3136.010480124967
 42
0.3939104756150257
 10
15023.70932957837
 20
3135.080236598711
 10
15015.74080675901
 20
3021.125051199991
 42
-0.3838640350354074
 10
15010.25361880373
 20
3015.826135386324
 10
15009.31550675766
 20
3015.793375791806
  0
MTEXT
  5
E237
330
75
100
AcDbEntity
  8
0
 62
     8
100
AcDbMText
 10
14896.33177948775
 20
3054.914672355935
 30
0.0
 40
15.0
 41
0.0
 71
     1
 72
     5
  1
Variant 110
 11
0.9998683908260041
 21
0.0162234714847751
 31
0.0
 73
     1
 44
1.0
1001
ACAD
1000
MTEXTBEGIN
1070
    73
1070
     1
1070
    44
1040
1.0
1070
    74
1070
     0
1000
MTEXTEND
  0
LWPOLYLINE
  5
EBDA
330
75
100
AcDbEntity
  8
0
  6
Continuous
100
AcDbPolyline
 90
        4
 70
     1
 43
0.0
 10
16851.64820377453
 20
2190.351817505368
 10
16851.64820377453
 20
3762.351817505372
 10
14555.64820377453
 20
3762.351817505372
 10
14555.64820377453
 20
2190.351817505368
  0
TEXT
  5
EBDB
330
75
100
AcDbEntity
  8
0
 62
     8
100
AcDbText
 10
14625.31525237003
 20
3522.26631659203
 30
0.0
 40
30.0
  1
Montageempfehlung
100
AcDbText
  0
TEXT
  5
EBDC
330
75
100
AcDbEntity
  8
0
 62
     8
100
AcDbText
 10
14625.31525237003
 20
3477.33336855962
 30
0.0
 40
30.0
  1
Installation recommendation
100
AcDbText
  0
TEXT
  5
EBDD
330
75
100
AcDbEntity
  8
0
 62
     8
100
AcDbText
 10
14625.31525237003
 20
3570.062185470084
 30
0.0
 40
30.0
  1
Priporočila za vgradnjo
100
AcDbText
  0
TEXT
  5
EBDE
330
75
100
AcDbEntity
  8
0
 62
   140
100
AcDbText
 10
14631.62244734929
 20
3633.019506032082
 30
0.0
 40
40.0
  1
VARIANT 110_U
  7
style2
100
AcDbText
  0
HATCH
  5
EBED
330
75
100
AcDbEntity
  8
0
  6
Continuous
 62
     9
100
AcDbHatch
 10
0.0
 20
0.0
 30
0.0
210
0.0
220
0.0
230
1.0
  2
HONEY
 70
     0
 71
     0
 91
        1
 92
        7
 72
     1
 73
     1
 93
        5
 10
16477.19009671345
 20
3464.67720821778
 42
0.0
 10
16413.19009671122
 20
3464.67720821778
 42
-0.0537214543458278
 10
16408.1190288993
 20
3457.748276029575
 42
-0.1989123673822559
 10
16415.19009671123
 20
3460.67720821778
 42
0.0
 10
16477.19009671122
 20
3460.677208217787
 42
0.9967279216734763
 97
        0
 75
     0
 76
     1
 52
0.0
 41
0.5
 77
     0
 78
     3
 53
0.0
 43
-13742.22900563232
 44
-15972.84766887642
 45
2.38125
 46
1.374814999999999
 79
     2
 49
1.587499999999999
 49
-3.174999999999998
 53
120.0
 43
-13742.22900563232
 44
-15972.84766887642
 45
-2.3812497155039
 46
1.374815492761695
 79
     2
 49
1.587499999999985
 49
-3.174999999999981
 53
60.0
 43
-13742.22900563232
 44
-15972.84766887642
 45
0.0000002844960973
 46
2.749630492761693
 79
     2
 49
-3.174999999999998
 49
1.587499999999999
 47
0.0722771265734775
 98
        1
 10
16459.23933465781
 20
3462.96763578497
  0
HATCH
  5
EBEE
330
75
100
AcDbEntity
  8
0
  6
Continuous
 62
     9
100
AcDbHatch
 10
0.0
 20
0.0
 30
0.0
210
0.0
220
0.0
230
1.0
  2
AR-CONC
 70
     0
 71
     0
 91
        1
 92
        7
 72
     1
 73
     1
 93
       11
 10
16680.39464865224
 20
3584.677208217618
 42
0.0
 10
16453.1900967113
 20
3584.677208217618
 42
0.4142135623730418
 10
16413.1900967113
 20
3544.677208217617
 42
0.0
 10
16413.1900967113
 20
3464.677208217617
 42
0.0
 10
16477.1769869147
 20
3464.677208217617
 42
-0.0016387201721513
 10
16477.19009671129
 20
3464.677208217617
 42
0.0
 10
16477.19009671129
 20
3520.677208217616
 42
0.0
 10
16493.19009671129
 20
3529.914812524651
 42
0.0
 10
16509.19009671129
 20
3520.677208217608
 42
0.0
 10
16509.19009671129
 20
3464.677208217617
 42
0.0
 10
16690.65362521347
 20
3464.677208217617
 42
0.1980206309716839
 97
        0
 75
     0
 76
     1
 52
0.0
 41
0.2
 77
     0
 78
    13
 53
50.0
 43
-13742.22900563224
 44
-15972.84766887658
 45
36.4369337992008
 46
-3.187817107780616
 79
     2
 49
3.81
 49
-41.90999999999998
 53
355.0
 43
-13742.22900563224
 44
-15972.84766887658
 45
-7.048565195133397
 46
38.211328576436
 79
     2
 49
3.048
 49
-33.528
 53
100.451
 43
-13739.19260563224
 44
-15973.11331887657
 45
29.38850033319186
 46
35.02333756405838
 79
     2
 49
3.23799999999999
 49
-35.618
 53
46.18419999999998
 43
-13742.22900563224
 44
-15962.68766887658
 45
54.21580817842599
 46
-8.408465586545428
 79
     2
 49
5.714999999999997
 49
-62.865
 53
96.63559999999993
 43
-13737.71102563224
 44
-15963.38836887658
 45
47.48084689324743
 46
49.48511117800984
 79
     2
 49
4.856999999999968
 49
-53.42699999999974
 53
351.184
 43
-13742.22900563224
 44
-15962.68766887658
 45
47.48092116278677
 46
49.48502357211953
 79
     2
 49
4.572
 49
-50.292
 53
21.0
 43
-13737.14900563224
 44
-15965.22766887658
 45
30.32297596707666
 46
-20.4531037033525
 79
     2
 49
3.81
 49
-41.90999999999998
 53
326.0
 43
-13737.14900563224
 44
-15965.22766887658
 45
12.36040566952941
 46
36.83759322446385
 79
     2
 49
3.048
 49
-33.528
 53
71.45140000000002
 43
-13734.62210563224
 44
-15966.93208887658
 45
42.6832981540249
 46
16.38457154321149
 79
     2
 49
3.237999999999984
 49
-35.61799999999986
 53
37.5
 43
-13742.22900563224
 44
-15972.84766887658
 45
0.6177206501183635
 46
16.91100777463062
 79
     6
 49
0.0
 49
-33.1216
 49
0.0
 49
-34.036
 49
0.0
 49
-33.655
 53
7.499999999999999
 43
-13742.22900563224
 44
-15972.84766887658
 45
13.36393250206115
 46
20.0361149636239
 79
     6
 49
0.0
 49
-19.4056
 49
0.0
 49
-32.3596
 49
0.0
 49
-12.827
 53
327.5
 43
-13753.55740563224
 44
-15972.84766887658
 45
27.11811903337428
 46
-1.145748798534689
 79
     6
 49
0.0
 49
-12.7
 49
0.0
 49
-39.624
 49
0.0
 49
-52.578
 53
317.5
 43
-13758.63740563224
 44
-15972.84766887658
 45
29.62583627720361
 46
5.085298206666603
 79
     6
 49
0.0
 49
-16.51
 49
0.0
 49
-26.3144
 49
0.0
 49
-37.338
 47
1.099452935760194
 98
        1
 10
16653.27274257196
 20
3521.803966728403
  0
HATCH
  5
EBEF
330
75
100
AcDbEntity
  8
0
  6
Continuous
 62
     9
100
AcDbHatch
 10
0.0
 20
0.0
 30
0.0
210
0.0
220
0.0
230
1.0
  2
ANSI38
 70
     0
 71
     0
 91
        1
 92
        7
 72
     1
 73
     1
 93
        4
 10
16647.19009671132
 20
3464.677208217617
 42
0.0
 10
16575.1900967113
 20
3464.677208217617
 42
0.0
 10
16575.19009671129
 20
3206.095192918751
 42
0.3116064977517444
 10
16647.19009671129
 20
3206.095192918745
 42
0.0
 97
        0
 75
     0
 76
     1
 52
0.0
 41
4.0
 77
     0
 78
     2
 53
45.0
 43
-13823.45830438473
 44
-15972.84766887658
 45
-8.98025612106915
 46
8.98025612106915
 79
     0
 53
135.0
 43
-13823.45830438473
 44
-15972.84766887658
 45
-26.94076836320746
 46
8.980256121069155
 79
     2
 49
31.75
 49
-19.05
 47
0.4337520762584397
 98
        1
 10
16615.46045084901
 20
3295.119960011238
  0
LINE
  5
EBF0
330
75
100
AcDbEntity
  8
0
100
AcDbLine
 10
16308.24671591807
 20
3464.67720821778
 30
0.0
 11
16690.65362521338
 21
3464.67720821778
 31
0.0
  0
LINE
  5
EBF1
330
75
100
AcDbEntity
  8
0
100
AcDbLine
 10
16327.49197754489
 20
3584.677208217618
 30
0.0
 11
16680.39464865224
 21
3584.677208217618
 31
0.0
  0
LWPOLYLINE
  5
EBF2
330
75
100
AcDbEntity
  8
0
 62
     3
100
AcDbPolyline
 90
        8
 70
     0
 43
0.0
 10
16409.1900967113
 20
3283.989557956271
 10
16409.1900967113
 20
3450.677208217615
 42
-0.4142135623730951
 10
16415.1900967113
 20
3456.677208217613
 10
16477.1900967113
 20
3456.677208217613
 10
16477.1900967113
 20
3460.677208217624
 10
16415.1900967113
 20
3460.67720821762
 42
0.4142135623730951
 10
16405.19009671132
 20
3450.677208217615
 10
16405.19009671132
 20
3287.011335139207
  0
INSERT
  5
EBF3
330
75
100
AcDbEntity
  8
0
100
AcDbBlockReference
  2
puša 8x14
 10
16493.19009671129
 20
3350.116250934654
 30
0.0
 41
-4.0
 42
4.0
 43
4.0
  0
INSERT
  5
EBF4
330
75
100
AcDbEntity
  8
0
100
AcDbBlockReference
  2
vijak8x30
 10
16493.19009671129
 20
3340.615648907707
 30
0.0
 41
-4.0
 42
4.0
 43
4.0
  0
INSERT
  5
EBF5
330
75
100
AcDbEntity
  8
0
100
AcDbBlockReference
  2
M6-krilna
 10
16493.19009671129
 20
3161.142106442327
 30
0.0
 41
-4.0
 42
4.0
 43
4.0
  0
LINE
  5
EBF6
330
75
100
AcDbEntity
  8
KOTA
 62
     8
100
AcDbLine
 10
16504.69009671128
 20
3520.677208217608
 30
0.0
 11
16279.07029392062
 21
3520.677208217608
 31
0.0
  0
LINE
  5
EBF7
330
75
100
AcDbEntity
  8
KOTA
 62
     8
100
AcDbLine
 10
16539.1250505606
 20
3464.677208217617
 30
0.0
 11
16279.07029392062
 21
3464.677208217617
 31
0.0
  0
LINE
  5
EBF8
330
75
100
AcDbEntity
  8
KOTA
 62
     8
100
AcDbLine
 10
16280.51029392062
 20
3488.677208217616
 30
0.0
 11
16280.51029392062
 21
3496.677208217608
 31
0.0
  0
LINE
  5
EBF9
330
75
100
AcDbEntity
  8
KOTA
 62
     8
100
AcDbLine
 10
16280.51029392062
 20
3520.677208217608
 30
0.0
 11
16280.51029392062
 21
3544.67720821761
 31
0.0
  0
SOLID
  5
EBFA
330
75
100
AcDbEntity
  8
KOTA
 62
     8
100
AcDbTrace
 10
16276.51029392062
 20
3488.677208217616
 30
0.0
 11
16284.51029392062
 21
3488.677208217616
 31
0.0
 12
16280.51029392062
 22
3464.677208217617
 32
0.0
 13
16280.51029392062
 23
3464.677208217617
 33
0.0
  0
SOLID
  5
EBFB
330
75
100
AcDbEntity
  8
KOTA
 62
     8
100
AcDbTrace
 10
16276.51029392062
 20
3496.677208217608
 30
0.0
 11
16284.51029392062
 21
3496.677208217608
 31
0.0
 12
16280.51029392062
 22
3520.677208217608
 32
0.0
 13
16280.51029392062
 23
3520.677208217608
 33
0.0
  0
MTEXT
  5
EBFC
330
75
100
AcDbEntity
  8
KOTA
 62
     8
100
AcDbMText
 10
16280.51029392062
 20
3575.619344716128
 30
0.0
 40
28.0
 41
0.0
 71
     5
 72
     1
  1
\A1;14{\A0;\C8;{\H2x;}\A2;\H0.71x;\S+1^ -0;}
  7
style2
 11
0.0000000000000001
 21
1.0
 31
0.0
 73
     1
 44
1.0
1001
ACAD
1000
MTEXTBEGIN
1070
    73
1070
     1
1070
    44
1040
1.0
1070
    74
1070
     0
1000
MTEXTEND
  0
LINE
  5
EBFD
330
75
100
AcDbEntity
  8
0
  6
CENTER
 62
     1
 48
0.2
100
AcDbLine
 10
16493.19009671122
 20
3529.914812524814
 30
0.0
 11
16493.19009671122
 21
3464.67720821778
 31
0.0
  0
LWPOLYLINE
  5
EBFE
330
75
100
AcDbEntity
  8
0
  6
CENTER
 48
40.0
100
AcDbPolyline
 90
        5
 70
     0
 43
0.0
 10
16509.19009671123
 20
3464.67720821778
 10
16509.19009671123
 20
3520.677208217771
 10
16493.19009671122
 20
3529.914812524814
 10
16477.19009671122
 20
3520.677208217779
 10
16477.19009671122
 20
3464.67720821778
  0
LINE
  5
EBFF
330
75
100
AcDbEntity
  8
KOTA
 62
     8
100
AcDbLine
 10
16477.2678786459
 20
3520.677208217771
 30
0.0
 11
16477.2678786459
 21
3656.477353694916
 31
0.0
  0
LINE
  5
EC00
330
75
100
AcDbEntity
  8
KOTA
 62
     8
100
AcDbLine
 10
16509.19009671123
 20
3520.677208217771
 30
0.0
 11
16509.19009671123
 21
3656.477353694916
 31
0.0
  0
LINE
  5
EC01
330
75
100
AcDbEntity
  8
KOTA
 62
     8
100
AcDbLine
 10
16453.2678786459
 20
3655.037353694915
 30
0.0
 11
16429.2678786459
 21
3655.037353694915
 31
0.0
  0
LINE
  5
EC02
330
75
100
AcDbEntity
  8
KOTA
 62
     8
100
AcDbLine
 10
16533.19009671123
 20
3655.037353694915
 30
0.0
 11
16570.99609852522
 21
3655.037353694915
 31
0.0
  0
SOLID
  5
EC03
330
75
100
AcDbEntity
  8
KOTA
 62
     8
100
AcDbTrace
 10
16453.2678786459
 20
3659.037353694915
 30
0.0
 11
16453.2678786459
 21
3651.037353694917
 31
0.0
 12
16477.2678786459
 22
3655.037353694915
 32
0.0
 13
16477.2678786459
 23
3655.037353694915
 33
0.0
  0
SOLID
  5
EC04
330
75
100
AcDbEntity
  8
KOTA
 62
     8
100
AcDbTrace
 10
16533.19009671123
 20
3659.037353694915
 30
0.0
 11
16533.19009671123
 21
3651.037353694917
 31
0.0
 12
16509.19009671123
 22
3655.037353694915
 32
0.0
 13
16509.19009671123
 23
3655.037353694915
 33
0.0
  0
MTEXT
  5
EC05
330
75
100
AcDbEntity
  8
KOTA
 62
     8
100
AcDbMText
 10
16619.91597983085
 20
3655.037353694915
 30
0.0
 40
28.0
 41
0.0
 71
     5
 72
     1
  1
\A1;%%C8{\A0;{\H2x;}\A2;\H0.71x;\S+0.2^ -0;\A1;{\H1.4085x;}{\H1.4085x;}{\H1.4085x;}}
  7
style2
 73
     1
 44
1.0
1001
ACAD
1000
MTEXTBEGIN
1070
    73
1070
     1
1070
    44
1040
1.0
1070
    74
1070
     0
1000
MTEXTEND
  0
LINE
  5
EC06
330
75
100
AcDbEntity
  8
0
100
AcDbLine
 10
16509.19009671123
 20
3520.677208217771
 30
0.0
 11
16477.19009671122
 21
3520.677208217779
 31
0.0
  0
DIMENSION
  5
EC07
330
75
100
AcDbEntity
  8
KOTA
  6
Continuous
100
AcDbDimension
  2
*D12
 10
16413.19009671114
 20
3619.752123077351
 30
0.0
 11
16453.41675022772
 21
3619.752123077351
 31
0.0
 70
   160
  1
20
 71
     5
 42
80.0
  3
STANDARD
100
AcDbAlignedDimension
 13
16493.19009671114
 23
3527.456808550912
 33
0.0
 14
16413.19009671114
 24
3542.21920424388
 34
0.0
 50
180.0
100
AcDbRotatedDimension
1001
ACAD
1000
DSTYLE
1002
{
1070
   178
1070
     8
1070
   146
1040
0.8
1070
   272
1070
     0
1070
    47
1040
1.0
1070
   147
1040
0.09
1070
    48
1040
1.0
1070
    72
1070
     0
1070
    71
1070
     1
1070
    40
1040
6.0
1070
   271
1070
     0
1002
}
  0
ARC
  5
EC08
330
75
100
AcDbEntity
  8
0
  6
Continuous
 62
     8
100
AcDbCircle
 10
16539.96539009993
 20
3512.233176784106
 30
0.0
 40
158.0142852652619
100
AcDbArc
 50
342.4847320132017
 51
27.2881059866915
  0
ARC
  5
EC09
330
75
100
AcDbEntity
  8
0
  6
Continuous
 62
     8
100
AcDbCircle
 10
16558.6970852464
 20
3486.05393459513
 30
0.0
 40
251.3609992168444
100
AcDbArc
 50
156.8987549991491
 51
233.5023426011257
  0
ARC
  5
EC0B
330
75
100
AcDbEntity
  8
0
  6
Continuous
100
AcDbCircle
 10
16378.50290472441
 20
3484.743530702001
 30
0.0
 40
40.07316540992952
100
AcDbArc
 50
317.6506617424598
 51
329.9508884521783
  0
ARC
  5
EC0C
330
75
100
AcDbEntity
  8
0
  6
Continuous
100
AcDbCircle
 10
16477.18354181405
 20
3462.677208217787
 30
0.0
 40
2.000010741640448
100
AcDbArc
 50
270.1877832996199
 51
89.81221670058856
  0
LWPOLYLINE
  5
EC0D
330
75
100
AcDbEntity
  8
0
  6
Continuous
100
AcDbPolyline
 90
        3
 70
     0
 43
0.0
 10
16453.19009671132
 20
3584.677208217618
 42
0.4142135623730951
 10
16413.1900967113
 20
3544.677208217617
 10
16413.1900967113
 20
3464.677208217617
  0
LINE
  5
EC0E
330
75
100
AcDbEntity
  8
0
  6
Continuous
 62
     3
100
AcDbLine
 10
16575.19009671129
 20
3206.095192918748
 30
0.0
 11
16575.1900967113
 21
3464.677208217617
 31
0.0
  0
LINE
  5
EC0F
330
75
100
AcDbEntity
  8
0
  6
Continuous
 62
     3
100
AcDbLine
 10
16647.19009671129
 20
3206.095192918753
 30
0.0
 11
16647.19009671132
 21
3464.677208217617
 31
0.0
  0
ARC
  5
EC10
330
75
100
AcDbEntity
  8
0
  6
Continuous
 62
     8
100
AcDbCircle
 10
16611.19009671129
 20
3258.25143852761
 30
0.0
 40
63.37407952792379
100
AcDbArc
 50
235.3852530202697
 51
304.6147469797304
  0
DIMENSION
  5
EC11
330
75
100
AcDbEntity
  8
KOTA
  6
Continuous
 62
     3
100
AcDbDimension
  2
*D13
 10
16575.1900967113
 20
3243.178771866907
 30
0.0
 11
16330.00394286514
 21
3243.178771866907
 31
0.0
 70
   160
  1
min 40
 71
     5
 42
162.0
  3
STANDARD
100
AcDbAlignedDimension
 13
16413.1900967113
 23
3464.677208217617
 33
0.0
 14
16575.1900967113
 24
3266.494709344757
 34
0.0
100
AcDbRotatedDimension
  0
LINE
  5
EC12
330
75
100
AcDbEntity
  8
0
  6
Continuous
 62
     3
100
AcDbLine
 10
16415.1900967113
 20
3460.67720821762
 30
0.0
 11
16308.62034965182
 21
3460.67720821762
 31
0.0
  0
DIMENSION
  5
EC13
330
75
100
AcDbEntity
  8
KOTA
  6
Continuous
 62
     3
100
AcDbDimension
  2
*D14
 10
16280.51029392061
 20
3460.67720821762
 30
0.0
 11
16280.51029392061
 21
3394.696080621184
 31
0.0
 70
   160
  1
~1
 71
     5
 42
3.999999999997726
  3
STANDARD
100
AcDbAlignedDimension
 13
16308.24671591814
 23
3464.677208217617
 33
0.0
 14
16308.62034965182
 24
3460.67720821762
 34
0.0
 50
90.0
100
AcDbRotatedDimension
1001
ACAD
1000
DSTYLE
1002
{
1070
   178
1070
     8
1070
    40
1040
6.0
1002
}
  0
MTEXT
  5
EC14
330
75
100
AcDbEntity
  8
0
 62
     8
100
AcDbMText
 10
16319.21062763248
 20
3632.118372561674
 30
0.0
 40
20.0
 41
0.0
 71
     6
 72
     1
  1
Silicone 
  7
style2
 73
     1
 44
1.0
1001
ACAD
1000
MTEXTBEGIN
1070
    73
1070
     1
1070
    44
1040
1.0
1070
    74
1070
     0
1000
MTEXTEND
  0
LEADER
  5
EC15
330
75
100
AcDbEntity
  8
0
  6
Continuous
100
AcDbLeader
  3
STANDARD
 76
     3
 10
16410.84067896241
 20
3461.076529554748
 30
0.0
 10
16326.69875640965
 20
3608.506665623404
 30
0.0
 10
16227.05518693124
 20
3608.506665623404
 30
0.0
213
55.38213692160934
223
105.51081574214
233
0.0
1001
ACAD
1000
DSTYLE
1002
{
1070
   147
1040
0.09
1070
    77
1070
     0
1002
}
  0
INSERT
  5
EC16
330
75
100
AcDbEntity
  8
0
 62
     9
100
AcDbBlockReference
  2
vgradnja U_h
 10
15251.59789688663
 20
3676.878547661659
 30
0.0
 41
1.5
 42
1.5
 43
1.5
  0
HATCH
  5
EC17
330
75
100
AcDbEntity
  8
0
  6
Continuous
 62
     9
100
AcDbHatch
 10
0.0
 20
0.0
 30
0.0
210
0.0
220
0.0
230
1.0
  2
AR-CONC
 70
     0
 71
     0
 91
        1
 92
        7
 72
     1
 73
     1
 93
       50
 10
15895.96001901623
 20
3584.677208217618
 42
0.4142135623730951
 10
15855.96001901623
 20
3544.677208217614
 42
0.0
 10
15855.96001901623
 20
3464.677208217617
 42
0.0
 10
15919.94690921963
 20
3464.677208217617
 42
-0.0016387201739703
 10
15919.96001901622
 20
3464.677208217617
 42
0.0
 10
15927.58136949098
 20
3464.677208217614
 42
0.0
 10
15928.68634326209
 20
3465.888447467426
 42
0.0
 10
15928.68634326209
 20
3469.112986934648
 42
0.0
 10
15926.28634326209
 20
3470.457639139205
 42
0.0
 10
15928.68634326209
 20
3473.088447467421
 42
0.0
 10
15928.68634326209
 20
3476.31298693464
 42
0.0
 10
15926.28634326208
 20
3477.657639139201
 42
0.0
 10
15928.68634326209
 20
3480.28844746743
 42
0.0
 10
15928.68634326209
 20
3483.512986934651
 42
0.0
 10
15926.28634326208
 20
3484.857639139202
 42
0.0
 10
15928.68634326209
 20
3487.488447467429
 42
0.0
 10
15928.68634326209
 20
3490.712986934649
 42
0.0
 10
15926.28634326209
 20
3492.057639139203
 42
0.0
 10
15928.68634326209
 20
3494.688447467421
 42
0.0
 10
15928.95044970252
 20
3498.294661621604
 42
0.0
 10
15927.23168106153
 20
3499.257639139199
 42
0.0
 10
15929.63168106154
 20
3501.888447467422
 42
0.0
 10
15930.79467477032
 20
3505.844255012384
 42
0.0
 10
15929.69987724617
 20
3506.457639139205
 42
0.0
 10
15932.09987724618
 20
3509.088447467423
 42
0.0
 10
15935.83501901624
 20
3515.583798640379
 42
0.0
 10
15937.41183680693
 20
3512.94691583843
 42
0.0
 10
15939.81183680695
 20
3511.602263633881
 42
0.0
 10
15938.66853986693
 20
3510.349015670803
 42
0.0
 10
15940.89475048649
 20
3505.746915838439
 42
0.0
 10
15943.29475048649
 20
3504.402263633878
 42
0.0
 10
15941.6752279487
 20
3502.62699139215
 42
0.0
 10
15942.72042351263
 20
3498.448867937074
 42
0.0
 10
15945.12042351262
 20
3497.104215732515
 42
0.0
 10
15942.72042351262
 20
3494.47340740429
 42
0.0
 10
15943.08634326209
 20
3491.346915838433
 42
0.0
 10
15945.48634326209
 20
3490.002263633873
 42
0.0
 10
15943.08634326209
 20
3487.371455305654
 42
0.0
 10
15943.08634326209
 20
3484.146915838427
 42
0.0
 10
15945.48634326209
 20
3482.802263633875
 42
0.0
 10
15943.08634326209
 20
3480.171455305652
 42
0.0
 10
15943.08634326209
 20
3476.946915838431
 42
0.0
 10
15945.48634326209
 20
3475.602263633871
 42
0.0
 10
15943.08634326209
 20
3472.971455305651
 42
0.0
 10
15943.08634326209
 20
3469.746915838442
 42
0.0
 10
15945.48634326209
 20
3468.402263633873
 42
0.0
 10
15943.08634326209
 20
3465.771455305656
 42
0.0
 10
15943.08634326209
 20
3464.677208217622
 42
0.0
 10
16088.75729710015
 20
3464.677208217617
 42
0.1980206309716824
 10
16078.49832053892
 20
3584.677208217618
 42
0.0
 97
        0
 75
     0
 76
     1
 52
0.0
 41
0.2
 77
     0
 78
    13
 53
50.0
 43
-14299.58408332732
 44
-15291.83762833215
 45
36.4369337992008
 46
-3.187817107780616
 79
     2
 49
3.81
 49
-41.90999999999998
 53
355.0
 43
-14299.58408332732
 44
-15291.83762833215
 45
-7.048565195133397
 46
38.211328576436
 79
     2
 49
3.048
 49
-33.528
 53
100.451
 43
-14296.54768332731
 44
-15292.10327833214
 45
29.38850033319186
 46
35.02333756405838
 79
     2
 49
3.237999999999993
 49
-35.618
 53
46.18420000000001
 43
-14299.58408332732
 44
-15281.67762833215
 45
54.21580817842599
 46
-8.408465586545428
 79
     2
 49
5.714999999999981
 49
-62.86499999999985
 53
96.63559999999993
 43
-14295.06610332731
 44
-15282.37832833216
 45
47.48084689324743
 46
49.48511117800984
 79
     2
 49
4.856999999999971
 49
-53.42699999999979
 53
351.184
 43
-14299.58408332732
 44
-15281.67762833215
 45
47.48092116278677
 46
49.48502357211953
 79
     2
 49
4.572
 49
-50.292
 53
21.0
 43
-14294.50408332732
 44
-15284.21762833215
 45
30.32297596707666
 46
-20.4531037033525
 79
     2
 49
3.81
 49
-41.90999999999998
 53
326.0
 43
-14294.50408332732
 44
-15284.21762833215
 45
12.36040566952941
 46
36.83759322446385
 79
     2
 49
3.048
 49
-33.528
 53
71.45140000000002
 43
-14291.97718332732
 44
-15285.92204833215
 45
42.6832981540249
 46
16.38457154321149
 79
     2
 49
3.23799999999999
 49
-35.61799999999993
 53
37.5
 43
-14299.58408332732
 44
-15291.83762833215
 45
0.6177206501183635
 46
16.91100777463062
 79
     6
 49
0.0
 49
-33.1216
 49
0.0
 49
-34.036
 49
0.0
 49
-33.655
 53
7.499999999999999
 43
-14299.58408332732
 44
-15291.83762833215
 45
13.36393250206115
 46
20.0361149636239
 79
     6
 49
0.0
 49
-19.4056
 49
0.0
 49
-32.3596
 49
0.0
 49
-12.827
 53
327.5
 43
-14310.91248332732
 44
-15291.83762833215
 45
27.11811903337428
 46
-1.145748798534689
 79
     6
 49
0.0
 49
-12.7
 49
0.0
 49
-39.624
 49
0.0
 49
-52.578
 53
317.5
 43
-14315.99248332732
 44
-15291.83762833215
 45
29.62583627720361
 46
5.085298206666603
 79
     6
 49
0.0
 49
-16.51
 49
0.0
 49
-26.3144
 49
0.0
 49
-37.338
 47
1.099452935760194
 98
        1
 10
16012.31362734147
 20
3529.948798039993
  0
LINE
  5
EC18
330
75
100
AcDbEntity
  8
0
100
AcDbLine
 10
15706.7681322547
 20
3464.677208217617
 30
0.0
 11
16088.75729710015
 21
3464.677208217617
 31
0.0
  0
LINE
  5
EC19
330
75
100
AcDbEntity
  8
0
100
AcDbLine
 10
15717.02710881595
 20
3584.677208217618
 30
0.0
 11
16078.49832053892
 21
3584.677208217618
 31
0.0
  0
LWPOLYLINE
  5
EC1A
330
75
100
AcDbEntity
  8
0
 62
     3
100
AcDbPolyline
 90
        8
 70
     0
 43
0.0
 10
15851.96001901624
 20
3286.689993065331
 10
15851.96001901624
 20
3450.677208217618
 42
-0.4142135623730951
 10
15857.96001901622
 20
3456.677208217616
 10
15919.96001901622
 20
3456.677208217616
 10
15919.96001901622
 20
3460.677208217626
 10
15857.96001901622
 20
3460.677208217617
 42
0.4142135623730951
 10
15847.96001901622
 20
3450.677208217618
 10
15847.96001901622
 20
3287.720951809563
  0
ARC
  5
EC1B
330
75
100
AcDbEntity
  8
0
  6
Continuous
 62
     8
100
AcDbCircle
 10
15938.0690619867
 20
3512.233176783944
 30
0.0
 40
158.0142852652619
100
AcDbArc
 50
342.4847320132426
 51
27.28810598664841
  0
ARC
  5
EC1C
330
75
100
AcDbEntity
  8
0
  6
Continuous
 62
     8
100
AcDbCircle
 10
15857.45636736818
 20
3512.233176783944
 30
0.0
 40
158.0142852652619
100
AcDbArc
 50
152.7118940133514
 51
197.5152679867573
  0
ARC
  5
EC1D
330
75
100
AcDbEntity
  8
0
  6
Continuous
 62
     8
100
AcDbCircle
 10
15896.02995140591
 20
3470.853012721447
 30
0.0
 40
189.3625537155801
100
AcDbArc
 50
181.8689560560046
 51
256.5422773052272
  0
HATCH
  5
EC1E
330
75
100
AcDbEntity
  8
0
  6
Continuous
 62
     9
100
AcDbHatch
 10
0.0
 20
0.0
 30
0.0
210
0.0
220
0.0
230
1.0
  2
HONEY
 70
     0
 71
     0
 91
        1
 92
        7
 72
     1
 73
     1
 93
        5
 10
15919.96001901844
 20
3464.677208217617
 42
0.0
 10
15855.96001901623
 20
3464.677208217617
 42
-0.0537214543458278
 10
15850.88895120429
 20
3457.748276029411
 42
-0.1989123673822559
 10
15857.96001901622
 20
3460.677208217617
 42
0.0
 10
15919.96001901622
 20
3460.677208217626
 42
0.9967279216734763
 97
        0
 75
     0
 76
     1
 52
0.0
 41
0.5
 77
     0
 78
     3
 53
0.0
 43
-14299.45908332731
 44
-15972.84766887657
 45
2.38125
 46
1.374814999999999
 79
     2
 49
1.587499999999999
 49
-3.174999999999998
 53
120.0
 43
-14299.45908332731
 44
-15972.84766887657
 45
-2.3812497155039
 46
1.374815492761695
 79
     2
 49
1.587499999999988
 49
-3.174999999999981
 53
60.0
 43
-14299.45908332731
 44
-15972.84766887657
 45
0.0000002844960973
 46
2.749630492761693
 79
     2
 49
-3.174999999999998
 49
1.587499999999999
 47
0.0722771265734775
 98
        1
 10
15902.00925696282
 20
3462.967635784809
  0
ARC
  5
EC1F
330
75
100
AcDbEntity
  8
0
  6
Continuous
100
AcDbCircle
 10
15821.27282702941
 20
3484.74353070184
 30
0.0
 40
40.07316540992952
100
AcDbArc
 50
317.6506617427427
 51
329.9508884522551
  0
ARC
  5
EC20
330
75
100
AcDbEntity
  8
0
  6
Continuous
100
AcDbCircle
 10
15919.95346411904
 20
3462.677208217626
 30
0.0
 40
2.000010741640448
100
AcDbArc
 50
270.1877832996199
 51
89.81221670058856
  0
LWPOLYLINE
  5
EC21
330
75
100
AcDbEntity
  8
0
  6
Continuous
100
AcDbPolyline
 90
        3
 70
     0
 43
0.0
 10
15895.96001901623
 20
3584.677208217618
 42
0.4142135623730951
 10
15855.96001901623
 20
3544.677208217617
 10
15855.96001901623
 20
3464.677208217617
  0
HATCH
  5
EC22
330
75
100
AcDbEntity
  8
0
  6
Continuous
 62
     9
100
AcDbHatch
 10
0.0
 20
0.0
 30
0.0
210
0.0
220
0.0
230
1.0
  2
ANSI38
 70
     0
 71
     0
 91
        1
 92
        1
 93
        4
 72
     2
 10
16030.78639982118
 20
3328.63666467939
 40
63.37407952792927
 50
235.3852530202551
 51
304.6147469797449
 73
     1
 72
     1
 10
16066.78639982118
 20
3276.480419070523
 11
16066.78639982118
 21
3464.677208217622
 72
     1
 10
16066.78639982118
 20
3464.677208217622
 11
15994.78639982118
 21
3464.677208217626
 72
     1
 10
15994.78639982118
 20
3464.677208217626
 11
15994.78639982118
 21
3276.480419070523
 97
        0
 75
     0
 76
     1
 52
0.0
 41
4.0
 77
     0
 78
     2
 53
45.0
 43
-14403.86200127485
 44
-15972.84766887657
 45
-8.98025612106915
 46
8.98025612106915
 79
     0
 53
135.0
 43
-14403.86200127485
 44
-15972.84766887657
 45
-26.94076836320746
 46
8.980256121069155
 79
     2
 49
31.75
 49
-19.05
 98
        1
 10
16035.05675395887
 20
3295.119960011234
  0
LINE
  5
EC23
330
75
100
AcDbEntity
  8
0
  6
Continuous
 62
     3
100
AcDbLine
 10
15994.78639982118
 20
3276.480419070523
 30
0.0
 11
15994.78639982118
 21
3464.677208217617
 31
0.0
  0
LINE
  5
EC24
330
75
100
AcDbEntity
  8
0
  6
Continuous
 62
     3
100
AcDbLine
 10
16066.78639982118
 20
3276.480419070525
 30
0.0
 11
16066.78639982118
 21
3464.677208217617
 31
0.0
  0
DIMENSION
  5
EC25
330
75
100
AcDbEntity
  8
KOTA
  6
Continuous
 62
     3
100
AcDbDimension
  2
*D15
 10
15994.78639982122
 20
3256.158034088104
 30
0.0
 11
15922.94882077798
 21
3256.158034088104
 31
0.0
 70
   160
  1
min 20
 71
     5
 42
138.9513808049778
  3
STANDARD
100
AcDbAlignedDimension
 13
15855.83501901624
 23
3464.677208217617
 33
0.0
 14
15994.78639982122
 24
3276.480419070525
 34
0.0
100
AcDbRotatedDimension
1001
ACAD
1000
DSTYLE
1002
{
1070
    40
1040
6.0
1002
}
  0
ARC
  5
EC26
330
75
100
AcDbEntity
  8
0
  6
Continuous
 62
     8
100
AcDbCircle
 10
16030.7863998212
 20
3328.636664679397
 30
0.0
 40
63.37407952792379
100
AcDbArc
 50
235.3852530202648
 51
304.6147469797351
  0
LEADER
  5
EC27
330
75
100
AcDbEntity
  8
0
 62
     2
100
AcDbLeader
  3
STANDARD
 73
     0
 75
     1
 76
     4
 10
15853.61060126742
 20
3461.076529554586
 30
0.0
 10
15762.80966569253
 20
3527.509325434081
 30
0.0
 10
15703.94450877623
 20
3578.704797964628
 30
0.0
 10
15679.94450877623
 20
3578.704797964628
 30
0.0
213
11.08542708984169
223
73.06529257072907
233
0.0
1001
ACAD
1000
DSTYLE
1002
{
1070
   147
1040
0.09
1070
    77
1070
     0
1002
}
  0
MTEXT
  5
EC28
102
{ACAD_REACTORS
330
EC27
102
}
330
75
100
AcDbEntity
  8
0
 62
     8
100
AcDbMText
 10
15671.17312754822
 20
3559.414224510433
 30
0.0
 40
12.0
 41
0.0
 71
     9
 72
     1
  3
{\fMyriad Pro Light|b0|i0|c0|p34;lepilo\fMyriad Pro Light|b0|i0|c238|p34;&\fMyriad Pro Light|b0|i0|c0|p34;tesnilo\P\fMyriad Pro Light|b0|i0|c238|p34;klebe&dicht-stoffe\fMyriad Pro Light|b0|i0|c0|p34;\P\fMyriad Pro Light|b0|i0|c238|p34;adhesive&sealan
  1
t}
 73
     1
 44
1.0
1001
ACAD
1000
MTEXTBEGIN
1070
    73
1070
     1
1070
    44
1040
1.0
1070
    74
1070
     0
1000
MTEXTEND
  0
LINE
  5
EC29
330
75
100
AcDbEntity
  8
0
  6
Continuous
 62
     3
100
AcDbLine
 10
15857.96001901622
 20
3460.677208217614
 30
0.0
 11
15706.69100473692
 21
3460.677208217614
 31
0.0
  0
DIMENSION
  5
EC2A
330
75
100
AcDbEntity
  8
KOTA
  6
Continuous
 62
     3
100
AcDbDimension
  2
*D16
 10
15673.03106943711
 20
3460.677208217614
 30
0.0
 11
15673.03106943711
 21
3408.260180978109
 31
0.0
 70
   160
  1
~1
 71
     5
 42
4.000000000003183
  3
STANDARD
100
AcDbAlignedDimension
 13
15706.7681322547
 23
3464.677208217617
 33
0.0
 14
15706.94100473691
 24
3460.677208217614
 34
0.0
 50
90.0
100
AcDbRotatedDimension
1001
ACAD
1000
DSTYLE
1002
{
1070
    40
1040
6.0
1002
}
  0
HATCH
  5
EC2B
330
75
100
AcDbEntity
  8
0
  6
Continuous
 62
     9
100
AcDbHatch
 10
0.0
 20
0.0
 30
0.0
210
0.0
220
0.0
230
1.0
  2
AR-CONC
 70
     0
 71
     0
 91
        1
 92
        7
 72
     1
 73
     1
 93
        7
 10
16476.89429074497
 20
2875.296094061702
 42
0.0
 10
16476.89429074497
 20
2843.296094061678
 42
0.0
 10
16643.77055288619
 20
2843.296094061678
 42
0.1980206309716825
 10
16633.51157632497
 20
2963.296094061679
 42
0.0
 10
16450.97327480226
 20
2963.296094061679
 42
0.4142135623730951
 10
16410.97327480227
 20
2923.296094061684
 42
0.0
 10
16410.97327480227
 20
2875.296094061702
 42
0.0
 97
        0
 75
     0
 76
     1
 52
0.0
 41
0.5
 77
     0
 78
    13
 53
50.0
 43
-11120.02974452265
 44
-6131.210118842659
 45
91.09233449800198
 46
-7.969542769451543
 79
     2
 49
9.525
 49
-104.775
 53
355.0
 43
-11120.02974452265
 44
-6131.210118842659
 45
-17.62141298783349
 46
95.52832144108998
 79
     2
 49
7.62
 49
-83.81999999999996
 53
100.451
 43
-11112.43874452266
 44
-6131.874243842657
 45
73.47125083297962
 46
87.55834391014593
 79
     2
 49
8.094999999999986
 49
-89.04499999999996
 53
46.18420000000001
 43
-11120.02974452265
 44
-6105.810118842658
 45
135.5395204460649
 46
-21.02116396636358
 79
     2
 49
14.28749999999998
 49
-157.1624999999993
 53
96.6356
 43
-11108.73479452265
 44
-6107.561868842657
 45
118.7021172331185
 46
123.7127779450245
 79
     2
 49
12.1425
 49
-133.5675
 53
351.184
 43
-11120.02974452265
 44
-6105.810118842658
 45
118.7023029069669
 46
123.7125589302988
 79
     2
 49
11.43
 49
-125.73
 53
21.0
 43
-11107.32974452265
 44
-6112.160118842657
 45
75.80743991769164
 46
-51.13275925838125
 79
     2
 49
9.525
 49
-104.775
 53
326.0
 43
-11107.32974452265
 44
-6112.160118842657
 45
30.90101417382354
 46
92.09398306115962
 79
     2
 49
7.62
 49
-83.81999999999996
 53
71.45140000000002
 43
-11101.01249452265
 44
-6116.421168842657
 45
106.7082453850622
 46
40.96142885802872
 79
     2
 49
8.094999999999977
 49
-89.04499999999979
 53
37.5
 43
-11120.02974452265
 44
-6131.210118842659
 45
1.544301625295908
 46
42.27751943657653
 79
     6
 49
0.0
 49
-82.804
 49
0.0
 49
-85.09
 49
0.0
 49
-84.1375
 53
7.499999999999999
 43
-11120.02974452265
 44
-6131.210118842659
 45
33.40983125515287
 46
50.09028740905975
 79
     6
 49
0.0
 49
-48.51399999999999
 49
0.0
 49
-80.899
 49
0.0
 49
-32.0675
 53
327.5
 43
-11148.35074452265
 44
-6131.210118842659
 45
67.79529758343571
 46
-2.864371996336727
 79
     6
 49
0.0
 49
-31.75
 49
0.0
 49
-99.06
 49
0.0
 49
-131.445
 53
317.5
 43
-11161.05074452265
 44
-6131.210118842659
 45
74.064590693009
 46
12.71324551666651
 79
     6
 49
0.0
 49
-41.275
 49
0.0
 49
-65.786
 49
0.0
 49
-93.345
 47
0.4457552022257838
 98
        1
 10
16499.56813373937
 20
2892.125936576994
1001
ACAD
1010
0.0
1020
0.0
1030
0.0
  0
LINE
  5
EC2C
102
{ACAD_REACTORS
330
EC44
102
}
330
75
100
AcDbEntity
  8
0
100
AcDbLine
 10
16406.97327480226
 20
2843.296094061678
 30
0.0
 11
16643.77055288619
 21
2843.296094061678
 31
0.0
  0
LINE
  5
EC2D
330
75
100
AcDbEntity
  8
0
100
AcDbLine
 10
16272.04036460198
 20
2963.296094061679
 30
0.0
 11
16633.51157632495
 21
2963.296094061679
 31
0.0
  0
HATCH
  5
EC2E
330
75
100
AcDbEntity
  8
0
  6
Continuous
 62
     9
100
AcDbHatch
 10
0.0
 20
0.0
 30
0.0
210
0.0
220
0.0
230
1.0
  2
HONEY
 70
     0
 71
     0
 91
        1
 92
        7
 72
     1
 73
     1
 93
        5
 10
16476.89429074497
 20
2871.296094061688
 42
0.0
 10
16474.97327480226
 20
2871.296094061688
 42
0.0
 10
16474.97327480226
 20
2867.296094061678
 42
0.0
 10
16451.04010939922
 20
2867.296094061678
 42
0.3392138725816467
 10
16476.89429074497
 20
2843.296094061678
 42
0.0
 97
        0
 75
     0
 76
     1
 52
0.0
 41
0.2
 77
     0
 78
     3
 53
0.0
 43
-11120.02974452265
 44
-6131.210118842659
 45
0.9525000000000002
 46
0.5499260000000003
 79
     2
 49
0.635
 49
-1.27
 53
120.0
 43
-11120.02974452265
 44
-6131.210118842659
 45
-0.9524998862015607
 46
0.5499261971046782
 79
     2
 49
0.6349999999999972
 49
-1.26999999999999
 53
60.0
 43
-11120.02974452265
 44
-6131.210118842659
 45
0.0000001137984389
 46
1.099852197104675
 79
     2
 49
-1.27
 49
0.635
 47
0.0425105607641763
 98
        1
 10
16469.82577504121
 20
2858.456867175394
1001
ACAD
1010
0.0
1020
0.0
1030
0.0
  0
LWPOLYLINE
  5
EC2F
330
75
100
AcDbEntity
  8
0
 62
     3
100
AcDbPolyline
 90
        8
 70
     0
 43
0.0
 10
16406.97327480226
 20
2697.308878909392
 10
16406.97327480226
 20
2861.296094061678
 42
-0.4142135623730951
 10
16412.97327480226
 20
2867.296094061678
 10
16474.97327480226
 20
2867.296094061678
 10
16474.97327480226
 20
2871.296094061686
 10
16412.97327480226
 20
2871.296094061678
 42
0.4142135623730951
 10
16402.97327480226
 20
2861.296094061678
 10
16402.97327480226
 20
2698.339837653624
  0
ARC
  5
EC30
330
75
100
AcDbEntity
  8
0
  6
Continuous
 62
     8
100
AcDbCircle
 10
16493.08231777257
 20
2890.852062628308
 30
0.0
 40
158.0142852652619
100
AcDbArc
 50
342.4847320132425
 51
27.28810598664857
  0
ARC
  5
EC31
330
75
100
AcDbEntity
  8
0
  6
Continuous
 62
     8
100
AcDbCircle
 10
16726.9166324359
 20
2908.19679746031
 30
0.0
 40
458.2012129234199
100
AcDbArc
 50
173.0933933267131
 51
188.1428939820651
  0
ARC
  5
EC32
330
75
100
AcDbEntity
  8
0
  6
Continuous
 62
     8
100
AcDbCircle
 10
16446.06956992179
 20
2867.258556928968
 30
0.0
 40
174.3886846989527
100
AcDbArc
 50
187.8979067333036
 51
257.0447158380409
  0
HATCH
  5
EC33
330
75
100
AcDbEntity
  8
0
  6
Continuous
 62
     9
100
AcDbHatch
 10
0.0
 20
0.0
 30
0.0
210
0.0
220
0.0
230
1.0
  2
HONEY
 70
     0
 71
     0
 91
        1
 92
        7
 72
     1
 73
     1
 93
        5
 10
16474.97327480448
 20
2875.296094061678
 42
0.0
 10
16410.97327480227
 20
2875.296094061678
 42
-0.0537214543458278
 10
16405.90220699033
 20
2868.367161873472
 42
-0.1989123673822559
 10
16412.97327480226
 20
2871.296094061678
 42
0.0
 10
16474.97327480226
 20
2871.296094061686
 42
0.9967279216734763
 97
        0
 75
     0
 76
     1
 52
0.0
 41
0.5
 77
     0
 78
     3
 53
0.0
 43
-13744.44582754129
 44
-16562.22878303252
 45
2.38125
 46
1.374814999999999
 79
     2
 49
1.587499999999999
 49
-3.174999999999998
 53
120.0
 43
-13744.44582754129
 44
-16562.22878303252
 45
-2.3812497155039
 46
1.374815492761695
 79
     2
 49
1.587499999999988
 49
-3.174999999999981
 53
60.0
 43
-13744.44582754129
 44
-16562.22878303252
 45
0.0000002844960973
 46
2.749630492761693
 79
     2
 49
-3.174999999999998
 49
1.587499999999999
 47
0.0722771265734775
 98
        1
 10
16457.02251274884
 20
2873.586521628871
  0
ARC
  5
EC34
330
75
100
AcDbEntity
  8
0
  6
Continuous
100
AcDbCircle
 10
16376.28608281544
 20
2895.3624165459
 30
0.0
 40
40.07316540992952
100
AcDbArc
 50
317.6506617427427
 51
329.950888452255
  0
LWPOLYLINE
  5
EC35
330
75
100
AcDbEntity
  8
0
  6
Continuous
100
AcDbPolyline
 90
        3
 70
     0
 43
0.0
 10
16450.97327480226
 20
2963.296094061679
 42
0.4142135623730951
 10
16410.97327480227
 20
2923.296094061679
 10
16410.97327480227
 20
2875.296094061702
  0
HATCH
  5
EC36
330
75
100
AcDbEntity
  8
0
  6
Continuous
 62
     9
100
AcDbHatch
 10
0.0
 20
0.0
 30
0.0
210
0.0
220
0.0
230
1.0
  2
ANSI38
 70
     0
 71
     0
 91
        1
 92
        1
 93
        4
 72
     2
 10
16474.84368627321
 20
2707.255550523461
 40
63.37407952792927
 50
235.3852530202387
 51
304.6147469797294
 73
     1
 72
     1
 10
16510.84368627318
 20
2655.099304914589
 11
16510.8436862732
 21
2843.296094061683
 72
     1
 10
16510.8436862732
 20
2843.296094061683
 11
16438.84368627319
 21
2843.296094061686
 72
     1
 10
16438.84368627319
 20
2843.296094061686
 11
16438.84368627319
 21
2655.099304914608
 97
        0
 75
     0
 76
     1
 52
0.0
 41
4.0
 77
     0
 78
     2
 53
45.0
 43
-13959.80471482284
 44
-16594.22878303252
 45
-8.98025612106915
 46
8.98025612106915
 79
     0
 53
135.0
 43
-13959.80471482284
 44
-16594.22878303252
 45
-26.94076836320746
 46
8.980256121069155
 79
     2
 49
31.75
 49
-19.05
 98
        1
 10
16479.11404041089
 20
2673.738845855296
  0
LINE
  5
EC37
330
75
100
AcDbEntity
  8
0
  6
Continuous
 62
     3
100
AcDbLine
 10
16438.84368627319
 20
2655.099304914608
 30
0.0
 11
16438.84368627319
 21
2843.296094061678
 31
0.0
  0
LINE
  5
EC38
330
75
100
AcDbEntity
  8
0
  6
Continuous
 62
     3
100
AcDbLine
 10
16510.84368627318
 20
2655.099304914589
 30
0.0
 11
16510.84368627318
 21
2843.296094061678
 31
0.0
  0
ARC
  5
EC39
330
75
100
AcDbEntity
  8
0
  6
Continuous
 62
     8
100
AcDbCircle
 10
16474.84368627321
 20
2707.255550523457
 30
0.0
 40
63.37407952792379
100
AcDbArc
 50
235.3852530202676
 51
304.6147469797323
  0
LEADER
  5
EC3A
330
75
100
AcDbEntity
  8
0
 62
     2
100
AcDbLeader
  3
STANDARD
 73
     0
 75
     1
 76
     4
 10
16408.62385705344
 20
2871.695415398647
 30
0.0
 10
16321.07042638927
 20
2946.366716885356
 30
0.0
 10
16260.7727575385
 20
2996.571167405098
 30
0.0
 10
16236.7727575385
 20
2996.571167405098
 30
0.0
213
11.08542708984169
223
73.06529257072907
233
0.0
1001
ACAD
1000
DSTYLE
1002
{
1070
   147
1040
0.09
1070
    77
1070
     0
1002
}
  0
MTEXT
  5
EC3B
102
{ACAD_REACTORS
330
EC3A
102
}
330
75
100
AcDbEntity
  8
0
 62
     8
100
AcDbMText
 10
16229.26371778739
 20
2852.458148614244
 30
0.0
 40
12.0
 41
0.0
 71
     9
 72
     1
  3
{\fMyriad Pro Light|b0|i0|c0|p34;lepilo\fMyriad Pro Light|b0|i0|c238|p34;&\fMyriad Pro Light|b0|i0|c0|p34;tesnilo\P\fMyriad Pro Light|b0|i0|c238|p34;klebe&dicht-stoffe\fMyriad Pro Light|b0|i0|c0|p34;\P\fMyriad Pro Light|b0|i0|c238|p34;adhesive&sealan
  1
t}
 73
     1
 44
1.0
1001
ACAD
1000
MTEXTBEGIN
1070
    73
1070
     1
1070
    44
1040
1.0
1070
    74
1070
     0
1000
MTEXTEND
  0
LINE
  5
EC3C
330
75
100
AcDbEntity
  8
0
  6
Continuous
 62
     3
100
AcDbLine
 10
16412.97327480226
 20
2871.296094061675
 30
0.0
 11
16270.20371427705
 21
2871.296094061675
 31
0.0
  0
DIMENSION
  5
EC3D
330
75
100
AcDbEntity
  8
KOTA
  6
Continuous
 62
     3
100
AcDbDimension
  2
*D17
 10
16227.84861326403
 20
2871.296094061675
 30
0.0
 11
16227.84861326403
 21
2819.611863292447
 31
0.0
 70
   160
  1
~1
 71
     5
 42
4.000000000027284
  3
STANDARD
100
AcDbAlignedDimension
 13
16410.97327480227
 23
2875.296094061702
 33
0.0
 14
16270.20371427705
 24
2871.296094061675
 34
0.0
 50
90.0
100
AcDbRotatedDimension
1001
ACAD
1000
DSTYLE
1002
{
1070
    40
1040
6.0
1002
}
  0
LINE
  5
EC3E
330
75
100
AcDbEntity
  8
0
  6
Continuous
100
AcDbLine
 10
16410.97327480227
 20
2875.296094061702
 30
0.0
 11
16476.89429074497
 21
2875.296094061702
 31
0.0
  0
LINE
  5
EC3F
102
{ACAD_REACTORS
330
EC44
102
}
330
75
100
AcDbEntity
  8
0
  6
Continuous
100
AcDbLine
 10
16476.89429074497
 20
2875.296094061702
 30
0.0
 11
16476.89429074497
 21
2843.296094061678
 31
0.0
  0
ARC
  5
EC40
102
{ACAD_REACTORS
330
EC47
102
}
330
75
100
AcDbEntity
  8
0
  6
Continuous
100
AcDbCircle
 10
16479.61987268091
 20
2872.158053902266
 30
0.0
 40
28.99036948245274
100
AcDbArc
 50
189.6546701009344
 51
264.6052663475874
  0
LINE
  5
EC41
330
75
100
AcDbEntity
  8
0
  6
Continuous
100
AcDbLine
 10
16474.97327480226
 20
2871.296094061686
 30
0.0
 11
16476.89429074497
 21
2871.296094061686
 31
0.0
  0
DIMENSION
  5
EC42
102
{ACAD_XDICTIONARY
360
EC43
102
}
102
{ACAD_REACTORS
330
EC44
102
}
330
75
100
AcDbEntity
  8
KOTA
  6
Continuous
 62
     9
100
AcDbDimension
  2
*D20
 10
16690.95074566716
 20
2843.296094061678
 30
0.0
 11
16690.95074566716
 21
2783.559170984757
 31
0.0
 70
   160
  1
2÷8
 71
     5
 42
32.00000000002456
  3
STANDARD
100
AcDbAlignedDimension
 13
16476.89429074497
 23
2875.296094061702
 33
0.0
 14
16643.77055288619
 24
2843.296094061678
 34
0.0
 50
90.0
100
AcDbRotatedDimension
1001
ACAD
1000
DSTYLE
1002
{
1070
    40
1040
6.0
1002
}
  0
LEADER
  5
EC45
102
{ACAD_XDICTIONARY
360
EC46
102
}
102
{ACAD_REACTORS
330
EC47
102
}
330
75
100
AcDbEntity
  8
0
  6
Continuous
 62
     9
100
AcDbLeader
  3
STANDARD
 76
     3
 10
16459.89663360112
 20
2850.91104557332
 30
0.0
 10
16368.37555910573
 20
2859.746566537138
 30
0.0
 10
16260.77275753852
 20
2996.571167405098
 30
0.0
213
-9.204548948295267
223
175.501496880941
233
0.0
1001
ACAD
1000
DSTYLE
1002
{
1070
    41
1040
2.0
1070
    40
1040
8.0
1070
   147
1040
0.625
1070
    77
1070
     0
1002
}
  0
HATCH
  5
EC48
330
75
100
AcDbEntity
  8
0
  6
Continuous
100
AcDbHatch
 10
0.0
 20
0.0
 30
0.0
210
0.0
220
0.0
230
1.0
  2
ANSI38
 70
     0
 71
     1
 91
        1
 92
        7
 72
     1
 73
     1
 93
        4
 10
16481.32733772252
 20
2502.209292789153
 42
0.0
 10
16481.32733772252
 20
2414.209292789154
 42
0.0
 10
16648.20359986376
 20
2414.209292789154
 42
0.1420773780558485
 10
16650.26612471332
 20
2502.209292789153
 42
0.0
 97
        4
330
EC4C
330
EC5D
330
EC49
330
EC4F
 75
     0
 76
     1
 52
0.0
 41
4.0
 77
     0
 78
     2
 53
45.0
 43
-11115.59669754509
 44
-7396.798446593857
 45
-8.98025612106915
 46
8.98025612106915
 79
     0
 53
135.0
 43
-11115.59669754509
 44
-7396.798446593857
 45
-26.94076836320746
 46
8.980256121069155
 79
     2
 49
31.75
 49
-19.05
 47
0.4814230135465553
 98
        1
 10
16517.0490860073
 20
2477.620977563525
1001
ACAD
1010
0.0
1020
0.0
1030
0.0
  0
LINE
  5
EC49
102
{ACAD_REACTORS
330
EC48
102
}
330
75
100
AcDbEntity
  8
0
100
AcDbLine
 10
16411.40632177983
 20
2414.209292789154
 30
0.0
 11
16648.20359986374
 21
2414.209292789154
 31
0.0
  0
HATCH
  5
EC4A
330
75
100
AcDbEntity
  8
0
  6
Continuous
100
AcDbHatch
 10
0.0
 20
0.0
 30
0.0
210
0.0
220
0.0
230
1.0
  2
AR-CONC
 70
     0
 71
     0
 91
        1
 92
        7
 72
     1
 73
     1
 93
        5
 10
16637.94462330252
 20
2534.209292789153
 42
0.0
 10
16435.40632177983
 20
2534.209292789153
 42
0.4142135623731483
 10
16415.40632177983
 20
2514.20929278915
 42
0.0
 10
16415.40632177983
 20
2502.209292789153
 42
0.0
 10
16650.26612471334
 20
2502.209292789153
 42
0.054412400719383
 97
        0
 75
     0
 76
     1
 52
0.0
 41
0.2
 77
     0
 78
    13
 53
50.0
 43
-11115.59669754509
 44
-7396.798446593857
 45
36.4369337992008
 46
-3.187817107780616
 79
     2
 49
3.81
 49
-41.90999999999998
 53
355.0
 43
-11115.59669754509
 44
-7396.798446593857
 45
-7.048565195133397
 46
38.211328576436
 79
     2
 49
3.048
 49
-33.528
 53
100.451
 43
-11112.56029754509
 44
-7397.064096593857
 45
29.38850033319186
 46
35.02333756405838
 79
     2
 49
3.237999999999993
 49
-35.618
 53
46.18420000000001
 43
-11115.59669754509
 44
-7386.63844659386
 45
54.21580817842599
 46
-8.408465586545428
 79
     2
 49
5.714999999999981
 49
-62.86499999999985
 53
96.6356
 43
-11111.07871754509
 44
-7387.339146593861
 45
47.48084689324743
 46
49.48511117800984
 79
     2
 49
4.857
 49
-53.427
 53
351.184
 43
-11115.59669754509
 44
-7386.63844659386
 45
47.48092116278677
 46
49.48502357211953
 79
     2
 49
4.572
 49
-50.292
 53
21.0
 43
-11110.51669754509
 44
-7389.178446593859
 45
30.32297596707666
 46
-20.4531037033525
 79
     2
 49
3.81
 49
-41.90999999999998
 53
326.0
 43
-11110.51669754509
 44
-7389.178446593859
 45
12.36040566952941
 46
36.83759322446385
 79
     2
 49
3.048
 49
-33.528
 53
71.45140000000002
 43
-11107.98979754509
 44
-7390.88286659386
 45
42.6832981540249
 46
16.38457154321149
 79
     2
 49
3.23799999999999
 49
-35.61799999999994
 53
37.5
 43
-11115.59669754509
 44
-7396.798446593857
 45
0.6177206501183635
 46
16.91100777463062
 79
     6
 49
0.0
 49
-33.1216
 49
0.0
 49
-34.036
 49
0.0
 49
-33.655
 53
7.499999999999999
 43
-11115.59669754509
 44
-7396.798446593857
 45
13.36393250206115
 46
20.0361149636239
 79
     6
 49
0.0
 49
-19.4056
 49
0.0
 49
-32.3596
 49
0.0
 49
-12.827
 53
327.5
 43
-11126.92509754509
 44
-7396.798446593857
 45
27.11811903337428
 46
-1.145748798534689
 79
     6
 49
0.0
 49
-12.7
 49
0.0
 49
-39.624
 49
0.0
 49
-52.578
 53
317.5
 43
-11132.00509754509
 44
-7396.798446593857
 45
29.62583627720361
 46
5.085298206666603
 79
     6
 49
0.0
 49
-16.51
 49
0.0
 49
-26.3144
 49
0.0
 49
-37.338
 47
0.4814230135465553
 98
        1
 10
16555.58578941861
 20
2512.283421043012
1001
ACAD
1010
0.0
1020
0.0
1030
0.0
  0
LINE
  5
EC4B
330
75
100
AcDbEntity
  8
0
100
AcDbLine
 10
16276.47341157954
 20
2534.209292789153
 30
0.0
 11
16637.94462330252
 21
2534.209292789153
 31
0.0
  0
LINE
  5
EC4C
102
{ACAD_REACTORS
330
EC48
102
}
330
75
100
AcDbEntity
  8
0
100
AcDbLine
 10
16273.73108929608
 20
2502.209292789153
 30
0.0
 11
16650.26612471334
 21
2502.209292789153
 31
0.0
  0
HATCH
  5
EC4D
330
75
100
AcDbEntity
  8
0
  6
Continuous
 62
     9
100
AcDbHatch
 10
0.0
 20
0.0
 30
0.0
210
0.0
220
0.0
230
1.0
  2
HONEY
 70
     0
 71
     0
 91
        1
 92
        7
 72
     1
 73
     1
 93
        5
 10
16481.32733772252
 20
2498.209292789139
 42
0.0
 10
16479.40632177983
 20
2498.209292789139
 42
0.0
 10
16479.40632177983
 20
2494.20929278913
 42
0.0
 10
16455.47315637679
 20
2494.20929278913
 42
0.3392138725816467
 10
16481.32733772252
 20
2470.20929278913
 42
0.0
 97
        0
 75
     0
 76
     1
 52
0.0
 41
0.2
 77
     0
 78
     3
 53
0.0
 43
-11115.59669754509
 44
-6504.296920115208
 45
0.9525000000000002
 46
0.5499260000000003
 79
     2
 49
0.635
 49
-1.27
 53
120.0
 43
-11115.59669754509
 44
-6504.296920115208
 45
-0.9524998862015607
 46
0.5499261971046782
 79
     2
 49
0.6349999999999972
 49
-1.26999999999999
 53
60.0
 43
-11115.59669754509
 44
-6504.296920115208
 45
0.0000001137984389
 46
1.099852197104675
 79
     2
 49
-1.27
 49
0.635
 47
0.0425105607641763
 98
        1
 10
16474.25882201877
 20
2485.370065902845
1001
ACAD
1010
0.0
1020
0.0
1030
0.0
  0
LWPOLYLINE
  5
EC4E
330
75
100
AcDbEntity
  8
0
 62
     3
100
AcDbPolyline
 90
        8
 70
     0
 43
0.0
 10
16411.40632177983
 20
2324.222077636843
 10
16411.40632177983
 20
2488.20929278913
 42
-0.4142135623730951
 10
16417.40632177983
 20
2494.20929278913
 10
16479.40632177983
 20
2494.20929278913
 10
16479.40632177983
 20
2498.209292789138
 10
16417.40632177983
 20
2498.209292789131
 42
0.4142135623730951
 10
16407.40632177983
 20
2488.20929278913
 10
16407.40632177983
 20
2325.253036381075
  0
ARC
  5
EC4F
102
{ACAD_REACTORS
330
EC48
102
}
330
75
100
AcDbEntity
  8
0
  6
Continuous
 62
     8
100
AcDbCircle
 10
16497.51536475029
 20
2461.765261355478
 30
0.0
 40
158.0142852652619
100
AcDbArc
 50
342.4847320132425
 51
27.28810598664857
  0
ARC
  5
EC50
330
75
100
AcDbEntity
  8
0
  6
Continuous
 62
     8
100
AcDbCircle
 10
16443.41412139648
 20
2494.926971999678
 30
0.0
 40
171.5001496232244
100
AcDbArc
 50
166.7587796669661
 51
206.4703650043727
  0
ARC
  5
EC51
330
75
100
AcDbEntity
  8
0
  6
Continuous
 62
     8
100
AcDbCircle
 10
16497.94901223895
 20
2561.237603730401
 30
0.0
 40
252.3212176597689
100
AcDbArc
 50
214.4553525554723
 51
249.9410869418293
  0
HATCH
  5
EC52
330
75
100
AcDbEntity
  8
0
  6
Continuous
 62
     9
100
AcDbHatch
 10
0.0
 20
0.0
 30
0.0
210
0.0
220
0.0
230
1.0
  2
HONEY
 70
     0
 71
     0
 91
        1
 92
        7
 72
     1
 73
     1
 93
        5
 10
16479.40632178204
 20
2502.20929278913
 42
0.0
 10
16415.40632177983
 20
2502.20929278913
 42
-0.0537214543458278
 10
16410.3352539679
 20
2495.280360600924
 42
-0.1989123673822559
 10
16417.40632177983
 20
2498.209292789131
 42
0.0
 10
16479.40632177983
 20
2498.209292789138
 42
0.9967279216734763
 97
        0
 75
     0
 76
     1
 52
0.0
 41
0.5
 77
     0
 78
     3
 53
0.0
 43
-13740.01278056372
 44
-16935.31558430507
 45
2.38125
 46
1.374814999999999
 79
     2
 49
1.587499999999999
 49
-3.174999999999998
 53
120.0
 43
-13740.01278056372
 44
-16935.31558430507
 45
-2.3812497155039
 46
1.374815492761695
 79
     2
 49
1.587499999999988
 49
-3.174999999999981
 53
60.0
 43
-13740.01278056372
 44
-16935.31558430507
 45
0.0000002844960973
 46
2.749630492761693
 79
     2
 49
-3.174999999999998
 49
1.587499999999999
 47
0.0722771265734775
 98
        1
 10
16461.4555597264
 20
2500.49972035632
  0
ARC
  5
EC53
330
75
100
AcDbEntity
  8
0
  6
Continuous
100
AcDbCircle
 10
16380.719129793
 20
2522.275615273352
 30
0.0
 40
40.07316540992952
100
AcDbArc
 50
317.6506617424613
 51
329.950888452255
  0
LWPOLYLINE
  5
EC54
330
75
100
AcDbEntity
  8
0
  6
Continuous
100
AcDbPolyline
 90
        2
 70
     0
 43
0.0
 10
16415.40632177983
 20
2514.20929278915
 10
16415.40632177983
 20
2502.209292789153
  0
HATCH
  5
EC55
330
75
100
AcDbEntity
  8
0
  6
Continuous
 62
     9
100
AcDbHatch
 10
0.0
 20
0.0
 30
0.0
210
0.0
220
0.0
230
1.0
  2
ANSI38
 70
     0
 71
     0
 91
        1
 92
        1
 93
        4
 72
     2
 10
16474.84368627316
 20
2308.615788630446
 40
63.37407952792927
 50
235.3852530202551
 51
304.6147469797512
 73
     1
 72
     1
 10
16510.84368627316
 20
2256.459543021583
 11
16510.84368627316
 21
2414.209292789158
 72
     1
 10
16510.84368627316
 20
2414.209292789158
 11
16438.84368627315
 21
2414.209292789161
 72
     1
 10
16438.84368627315
 20
2414.209292789161
 11
16438.84368627315
 21
2256.459543021582
 97
        0
 75
     0
 76
     1
 52
0.0
 41
4.0
 77
     0
 78
     2
 53
45.0
 43
-13959.80471482287
 44
-17023.31558430505
 45
-8.98025612106915
 46
8.98025612106915
 79
     0
 53
135.0
 43
-13959.80471482287
 44
-17023.31558430505
 45
-26.94076836320746
 46
8.980256121069155
 79
     2
 49
31.75
 49
-19.05
 98
        1
 10
16479.11404041088
 20
2244.65204458277
  0
LINE
  5
EC56
330
75
100
AcDbEntity
  8
0
  6
Continuous
 62
     3
100
AcDbLine
 10
16438.84368627314
 20
2256.459543021588
 30
0.0
 11
16438.84368627315
 21
2414.209292789154
 31
0.0
  0
LINE
  5
EC57
330
75
100
AcDbEntity
  8
0
  6
Continuous
 62
     3
100
AcDbLine
 10
16510.84368627315
 20
2256.459543021583
 30
0.0
 11
16510.84368627315
 21
2414.209292789154
 31
0.0
  0
ARC
  5
EC58
330
75
100
AcDbEntity
  8
0
  6
Continuous
 62
     8
100
AcDbCircle
 10
16474.84368627316
 20
2308.615788630443
 30
0.0
 40
63.37407952792379
100
AcDbArc
 50
235.3852530202676
 51
304.6147469797323
  0
LEADER
  5
EC59
330
75
100
AcDbEntity
  8
0
 62
     2
100
AcDbLeader
  3
STANDARD
 73
     0
 76
     3
 10
16414.45068445453
 20
2499.972418075298
 30
0.0
 10
16300.98844247319
 20
2553.74460420098
 30
0.0
 10
16276.09397446199
 20
2555.628874697175
 30
0.0
213
-0.7199999999997999
223
33.09645028804971
233
0.0
1001
ACAD
1000
DSTYLE
1002
{
1070
   147
1040
0.09
1070
    77
1070
     0
1002
}
  0
MTEXT
  5
EC5A
102
{ACAD_REACTORS
330
EC59
102
}
330
75
100
AcDbEntity
  8
0
 62
     8
100
AcDbMText
 10
16268.45404462998
 20
2543.304511471063
 30
0.0
 40
12.0
 41
0.0
 71
     9
 72
     1
  3
{\fMyriad Pro Light|b0|i0|c0|p34;lepilo\fMyriad Pro Light|b0|i0|c238|p34;&\fMyriad Pro Light|b0|i0|c0|p34;tesnilo\P\fMyriad Pro Light|b0|i0|c238|p34;klebe&dicht-stoffe\fMyriad Pro Light|b0|i0|c0|p34;\P\fMyriad Pro Light|b0|i0|c238|p34;adhesive&sealan
  1
t}
 73
     1
 44
1.0
1001
ACAD
1000
MTEXTBEGIN
1070
    73
1070
     1
1070
    44
1040
1.0
1070
    74
1070
     0
1000
MTEXTEND
  0
LINE
  5
EC5B
330
75
100
AcDbEntity
  8
0
  6
Continuous
 62
     3
100
AcDbLine
 10
16417.40632177983
 20
2498.209292789127
 30
0.0
 11
16274.63676125463
 21
2498.209292789127
 31
0.0
  0
DIMENSION
  5
EC5C
330
75
100
AcDbEntity
  8
KOTA
  6
Continuous
 62
     3
100
AcDbDimension
  2
*D18
 10
16234.88655010018
 20
2498.209292789127
 30
0.0
 11
16234.88655010018
 21
2446.525062019899
 31
0.0
 70
   160
  1
~1
 71
     5
 42
4.000000000026375
  3
STANDARD
100
AcDbAlignedDimension
 13
16273.98108929609
 23
2502.209292789153
 33
0.0
 14
16274.63676125463
 24
2498.209292789127
 34
0.0
 50
90.0
100
AcDbRotatedDimension
1001
ACAD
1000
DSTYLE
1002
{
1070
    40
1040
6.0
1002
}
  0
LINE
  5
EC5D
102
{ACAD_REACTORS
330
EC48
102
}
330
75
100
AcDbEntity
  8
0
  6
Continuous
100
AcDbLine
 10
16481.32733772252
 20
2502.209292789153
 30
0.0
 11
16481.32733772252
 21
2414.209292789156
 31
0.0
  0
ARC
  5
EC5E
102
{ACAD_REACTORS
330
EC63
102
}
330
75
100
AcDbEntity
  8
0
  6
Continuous
100
AcDbCircle
 10
16484.05291965848
 20
2499.071252629718
 30
0.0
 40
28.99036948245274
100
AcDbArc
 50
189.6546701009344
 51
264.6052663475874
  0
LINE
  5
EC5F
330
75
100
AcDbEntity
  8
0
  6
Continuous
100
AcDbLine
 10
16479.40632177983
 20
2498.209292789138
 30
0.0
 11
16481.32733772252
 21
2498.209292789138
 31
0.0
  0
DIMENSION
  5
EC60
330
75
100
AcDbEntity
  8
KOTA
  6
Continuous
 62
     9
100
AcDbDimension
  2
*D19
 10
16709.71505941983
 20
2534.209292789093
 30
0.0
 11
16709.71505941983
 21
2450.168550949391
 31
0.0
 70
   160
  1
~8
 71
     5
 42
31.99999999993997
  3
STANDARD
100
AcDbAlignedDimension
 13
16650.26612471334
 23
2502.209292789153
 33
0.0
 14
16637.94462330253
 24
2534.209292789093
 34
0.0
 50
90.0
100
AcDbRotatedDimension
1001
ACAD
1000
DSTYLE
1002
{
1070
    40
1040
6.0
1002
}
  0
LEADER
  5
EC61
102
{ACAD_XDICTIONARY
360
EC62
102
}
102
{ACAD_REACTORS
330
EC63
102
}
330
75
100
AcDbEntity
  8
0
  6
Continuous
 62
     9
100
AcDbLeader
  3
STANDARD
 76
     3
 10
16464.32968057867
 20
2477.824244300772
 30
0.0
 10
16345.16292803993
 20
2511.539924405803
 30
0.0
 10
16300.98844247319
 20
2553.74460420098
 30
0.0
213
-4.60227447414763
223
87.75074844047049
233
0.0
1001
ACAD
1000
DSTYLE
1002
{
1070
    41
1040
2.0
1070
    40
1040
8.0
1070
   147
1040
0.625
1070
    77
1070
     0
1002
}
  0
ARC
  5
EC64
330
75
100
AcDbEntity
  8
0
  6
Continuous
100
AcDbCircle
 10
16435.40632177983
 20
2514.209292789155
 30
0.0
 40
20.0
100
AcDbArc
 50
90.0
 51
180.0
  0
LINE
  5
EC65
330
75
100
AcDbEntity
  8
0
  6
Continuous
100
AcDbLine
 10
16415.40632177983
 20
2502.209292789153
 30
0.0
 11
16415.40632177983
 21
2502.209292789153
 31
0.0
  0
LINE
  5
EC66
330
75
100
AcDbEntity
  8
0
  6
Continuous
100
AcDbLine
 10
16481.32733772252
 20
2470.209292789132
 30
0.0
 11
16411.40632177983
 21
2470.209292789132
 31
0.0
  0
TEXT
  5
EC67
330
75
100
AcDbEntity
  8
0
 62
     8
100
AcDbText
 10
15750.95204863255
 20
3604.447445821836
 30
0.0
 40
12.0
  1
- worktop (composite, stone, massive wood)
100
AcDbText
1001
ACAD
1000
ACAD_MTEXT_DEFINED_HEIGHT_BEGIN
1070
    46
1040
63.46534727994207
1000
ACAD_MTEXT_DEFINED_HEIGHT_END
  0
TEXT
  5
EC68
330
75
100
AcDbEntity
  8
0
 62
     8
100
AcDbText
 10
15751.04095175538
 20
3638.370197869259
 30
0.0
 40
12.0
  1
- pult (iz kompozita, kamna, masivnega lesa)
  7
Text Style14
100
AcDbText
  0
TEXT
  5
EC69
330
75
100
AcDbEntity
  8
0
 62
     8
100
AcDbText
 10
15750.90241231584
 20
3620.341604487954
 30
0.0
 40
12.0
  1
- arbaitsplatte: (composit, stain, massive holz)
100
AcDbText
  0
TEXT
  5
EC6A
330
75
100
AcDbEntity
  8
0
 62
     8
100
AcDbText
 10
16326.78903087533
 20
2554.023531374185
 30
0.0
 40
12.0
  1
- worktop (composite, glass+massive wood)
100
AcDbText
1001
ACAD
1000
MTEXTBEGIN
1070
    73
1070
     1
1070
    44
1040
1.0
1070
    74
1070
     0
1000
MTEXTEND
1000
ACAD_MTEXT_DEFINED_HEIGHT_BEGIN
1070
    46
1040
63.46534727994207
1000
ACAD_MTEXT_DEFINED_HEIGHT_END
  0
TEXT
  5
EC6B
330
75
100
AcDbEntity
  8
0
 62
     8
100
AcDbText
 10
16326.87793399816
 20
2587.946283421608
 30
0.0
 40
12.0
  1
- pult (iz kompozita, stekla+masivnega lesa)
  7
Text Style14
100
AcDbText
1001
ACAD
1000
MTEXTBEGIN
1070
    73
1070
     1
1070
    44
1040
1.0
1070
    74
1070
     0
1000
MTEXTEND
  0
TEXT
  5
EC6C
330
75
100
AcDbEntity
  8
0
 62
     8
100
AcDbText
 10
16326.73939455859
 20
2569.917690040308
 30
0.0
 40
12.0
  1
- arbaitsplatte: (composit, glass+massive holz)
100
AcDbText
1001
ACAD
1000
MTEXTBEGIN
1070
    73
1070
     1
1070
    44
1040
1.0
1070
    74
1070
     0
1000
MTEXTEND
  0
TEXT
  5
EC6D
330
75
100
AcDbEntity
  8
0
 62
     8
100
AcDbText
 10
16280.79655620024
 20
2995.276761356752
 30
0.0
 40
12.0
  1
- worktop (composite, stone, massive wood)
100
AcDbText
1001
ACAD
1000
ACAD_MTEXT_DEFINED_HEIGHT_BEGIN
1070
    46
1040
63.46534727994207
1000
ACAD_MTEXT_DEFINED_HEIGHT_END
  0
TEXT
  5
EC6E
330
75
100
AcDbEntity
  8
0
 62
     8
100
AcDbText
 10
16280.88545932309
 20
3029.199513404175
 30
0.0
 40
12.0
  1
- pult (iz kompozita, kamna, masivnega lesa)
  7
Text Style14
100
AcDbText
  0
TEXT
  5
EC6F
330
75
100
AcDbEntity
  8
0
 62
     8
100
AcDbText
 10
16280.74691988355
 20
3011.17092002287
 30
0.0
 40
12.0
  1
- arbaitsplatte: (composit, stain, massive holz)
100
AcDbText
  0
INSERT
  5
EC79
330
75
100
AcDbEntity
  8
0
 62
     8
100
AcDbBlockReference
  2
A$C0B14389D
 10
16419.19009526485
 20
3402.032546315208
 30
0.0
  0
DIMENSION
  5
10106
330
75
100
AcDbEntity
  8
KOTA
100
AcDbDimension
  2
*D21
 10
15169.55673188242
 20
2618.951206870185
 30
0.0
 11
15169.55673188242
 21
2782.231208160309
 31
0.0
 70
   160
 71
     5
 42
322.9999999999986
  3
STANDARD
100
AcDbAlignedDimension
 13
14968.12161798221
 23
2941.951206870184
 33
0.0
 14
14968.12161798221
 24
2618.951206870185
 34
0.0
 50
90.0
100
AcDbRotatedDimension
  0
DIMENSION
  5
1011E
330
75
100
AcDbEntity
  8
KOTA
100
AcDbDimension
  2
*D22
 10
15034.62161798221
 20
2490.39028618383
 30
0.0
 11
14947.09092026635
 21
2490.39028618383
 31
0.0
 70
   160
 71
     5
 42
171.0000000000091
  3
STANDARD
100
AcDbAlignedDimension
 13
14863.6216179822
 23
2685.451206870187
 33
0.0
 14
15034.62161798221
 24
2685.451206870184
 34
0.0
100
AcDbRotatedDimension
  0
ENDSEC
  0
SECTION
  2
OBJECTS
  0
DICTIONARY
  5
C
330
0
100
AcDbDictionary
281
     1
  3
ACAD_BACKGROUND
350
D7EF
  3
ACAD_CIP_PREVIOUS_PRODUCT_INFO
350
D7EE
  3
ACAD_COLOR
350
6B
  3
ACAD_DETAILVIEWSTYLE
350
D7E5
  3
ACAD_GROUP
350
D
  3
ACAD_LAYOUT
350
6A
  3
ACAD_MATERIAL
350
10
  3
ACAD_MLEADERSTYLE
350
6E
  3
ACAD_MLINESTYLE
350
67
  3
ACAD_PLOTSETTINGS
350
69
  3
ACAD_PLOTSTYLENAME
350
E
  3
ACAD_SCALELIST
350
3A
  3
ACAD_SECTIONVIEWSTYLE
350
D7E3
  3
ACAD_TABLESTYLE
350
6C
  3
ACAD_VISUALSTYLE
350
29
  3
ACDB_RECOMPOSE_DATA
350
103DB
  3
AcDbVariableDictionary
350
11A
  3
ASE_INDEX_DICTIONARY
350
B845
  3
DWGPROPS
350
103DC
  0
DICTIONARY
  5
10A
330
8
100
AcDbDictionary
280
     1
281
     1
  0
DICTIONARY
  5
86
330
2
100
AcDbDictionary
280
     1
281
     1
  3
ACAD_LAYERFILTERS
360
A6FA
  3
ACAD_LAYERSTATES
360
87
  3
ACLYDICTIONARY
360
A6F9
  0
DICTIONARY
  5
FE
330
5C
100
AcDbDictionary
280
     1
281
     1
  3
ADSK_XREC_LAYER_RECONCILED
360
FF
  0
DICTIONARY
  5
13E9
330
75
100
AcDbDictionary
280
     1
281
     1
  3
ACAD_SORTENTS
360
13EA
  0
DICTIONARY
  5
E811
330
E810
100
AcDbDictionary
280
     1
281
     1
  3
ACAD_SORTENTS
360
E812
  0
DICTIONARY
  5
10419
330
10369
100
AcDbDictionary
280
     1
281
     1
  3
ACAD_MTEXT_RT
360
1041A
  0
DICTIONARY
  5
EC43
330
EC42
100
AcDbDictionary
280
     1
281
     1
  3
ACAD_DIMASSOC
360
EC44
  0
DICTIONARY
  5
EC46
330
EC45
100
AcDbDictionary
280
     1
281
     1
  3
ACAD_DIMASSOC
360
EC47
  0
DICTIONARY
  5
EC62
330
EC61
100
AcDbDictionary
280
     1
281
     1
  3
ACAD_DIMASSOC
360
EC63
  0
DICTIONARY
  5
D7EF
102
{ACAD_REACTORS
330
C
102
}
330
C
100
AcDbDictionary
281
     1
  0
XRECORD
  5
D7EE
102
{ACAD_REACTORS
330
C
102
}
330
C
100
AcDbXrecord
280
     1
300
ACD
300
2013
300
ACD_F_S
  0
DICTIONARY
  5
6B
102
{ACAD_REACTORS
330
C
102
}
330
C
100
AcDbDictionary
281
     1
  3
RAL CLASSIC$RAL 2002
350
1AAC
  3
RAL CLASSIC$RAL 2007
350
1AAD
  3
RAL CLASSIC$RAL 5019
350
FD
  3
RAL CLASSIC$RAL 7000
350
1AAE
  3
RAL CLASSIC$RAL 7032
350
1AAF
  0
DICTIONARY
  5
D7E5
102
{ACAD_REACTORS
330
C
102
}
330
C
100
AcDbDictionary
281
     1
  3
Metric50
350
D7E6
  0
DICTIONARY
  5
D
102
{ACAD_REACTORS
330
C
102
}
330
C
100
AcDbDictionary
281
     1
  0
DICTIONARY
  5
6A
102
{ACAD_REACTORS
330
C
102
}
330
C
100
AcDbDictionary
281
     1
  3
Layout1
350
74
  3
Layout2
350
7C
  3
Model
350
78
  0
DICTIONARY
  5
10
102
{ACAD_REACTORS
330
C
102
}
330
C
100
AcDbDictionary
281
     1
  3
ByBlock
350
19
  3
ByLayer
350
11
  3
Global
350
21
  0
DICTIONARY
  5
6E
102
{ACAD_REACTORS
330
C
102
}
330
C
100
AcDbDictionary
281
     1
  3
Standard
350
6F
  0
DICTIONARY
  5
67
102
{ACAD_REACTORS
330
C
102
}
330
C
100
AcDbDictionary
281
     1
  3
Standard
350
68
  0
DICTIONARY
  5
69
102
{ACAD_REACTORS
330
C
102
}
330
C
100
AcDbDictionary
281
     1
  0
ACDBDICTIONARYWDFLT
  5
E
102
{ACAD_REACTORS
330
C
102
}
330
C
100
AcDbDictionary
281
     1
  3
Normal
350
F
100
AcDbDictionaryWithDefault
340
F
  0
DICTIONARY
  5
3A
102
{ACAD_REACTORS
330
C
102
}
330
C
100
AcDbDictionary
281
     1
  3
*A1
350
B8E2
  3
A0
350
3B
  3
A1
350
3C
  3
A2
350
3D
  3
A3
350
3E
  3
A4
350
3F
  3
A5
350
40
  3
A6
350
41
  3
A7
350
42
  3
A8
350
43
  3
A9
350
44
  3
B0
350
45
  3
B1
350
46
  3
B2
350
47
  3
B3
350
48
  3
B4
350
49
  3
B5
350
4A
  3
B6
350
4B
  3
B7
350
4C
  3
B8
350
4D
  3
B9
350
4E
  3
C0
350
4F
  3
C1
350
50
  3
C2
350
51
  3
C3
350
52
  3
C4
350
53
  3
C5
350
54
  3
C6
350
55
  3
C7
350
56
  3
C8
350
57
  3
C9
350
58
  3
D0
350
59
  3
D1
350
5A
  3
D2
350
5B
  0
DICTIONARY
  5
D7E3
102
{ACAD_REACTORS
330
C
102
}
330
C
100
AcDbDictionary
281
     1
  3
Metric50
350
D7E4
  0
DICTIONARY
  5
6C
102
{ACAD_REACTORS
330
C
102
}
330
C
100
AcDbDictionary
281
     1
  3
Standard
350
6D
  0
DICTIONARY
  5
29
102
{ACAD_REACTORS
330
C
102
}
330
C
100
AcDbDictionary
281
     1
  3
2dWireframe
350
2F
  3
3D Hidden
350
31
  3
3dWireframe
350
30
  3
Basic
350
2E
  3
Brighten
350
35
  3
ColorChange
350
39
  3
Conceptual
350
32
  3
Dim
350
34
  3
EdgeColorOff
350
D7E2
  3
Facepattern
350
38
  3
Flat
350
2A
  3
FlatWithEdges
350
2B
  3
Gouraud
350
2C
  3
GouraudWithEdges
350
2D
  3
Hidden
350
D7DA
  3
JitterOff
350
D7E0
  3
Linepattern
350
37
  3
OverhangOff
350
D7E1
  3
Realistic
350
33
  3
Shaded
350
D7DF
  3
Shaded with edges
350
D7DE
  3
Shades of Gray
350
D7DB
  3
Sketchy
350
D7DC
  3
Thicken
350
36
  3
Wireframe
350
D7D9
  3
X-Ray
350
D7DD
  0
XRECORD
  5
103DB
102
{ACAD_REACTORS
330
C
102
}
330
C
100
AcDbXrecord
280
     1
 90
        1
330
6D
  0
DICTIONARY
  5
11A
102
{ACAD_REACTORS
330
C
102
}
330
C
100
AcDbDictionary
281
     1
  3
CANNOSCALE
350
11E
  3
CMLEADERSTYLE
350
11C
  3
CTABLESTYLE
350
11B
  3
CVIEWDETAILSTYLE
350
D9AF
  3
CVIEWSECTIONSTYLE
350
D9B0
  3
DIMASSOC
350
123
  3
EXPORTMODELSPACE
350
1028C
  3
EXPORTPAGESETUP
350
1028B
  3
HIDETEXT
350
122
  3
INDEXCTL
350
121
  3
LIGHTINGUNITS
350
11F
  3
MSLTSCALE
350
11D
  3
SORTENTS
350
120
  3
XCLIPFRAME
350
10397
  0
DICTIONARY
  5
B845
102
{ACAD_REACTORS
330
C
102
}
330
C
100
AcDbDictionary
281
     1
  3
ASEBlockHierarchyIndexRecord
350
B846
1001
DCO15
1040
1725096340.563
  0
XRECORD
  5
103DC
102
{ACAD_REACTORS
330
C
102
}
330
C
100
AcDbXrecord
280
     1
  1
DWGPROPS COOKIE
  2

  3

  4

  6

  7

  8
darkom
  9

300
=
301
=
302
=
303
=
304
=
305
=
306
=
307
=
308
=
309
=
 40
2.624190300925925
 41
2455421.559696424
 42
2457709.414171458
  1

 90
        0
  0
DICTIONARY
  5
A6FA
102
{ACAD_REACTORS
330
86
102
}
330
86
100
AcDbDictionary
281
     1
  0
DICTIONARY
  5
87
102
{ACAD_REACTORS
330
86
102
}
330
86
100
AcDbDictionary
281
     1
  0
DICTIONARY
  5
A6F9
102
{ACAD_REACTORS
330
86
102
}
330
86
100
AcDbDictionary
281
     1
1001
ACAD
1000
<All
  0
XRECORD
  5
FF
102
{ACAD_REACTORS
330
FE
102
}
330
FE
100
AcDbXrecord
280
     1
290
     1
  0
SORTENTSTABLE
  5
13EA
102
{ACAD_REACTORS
330
13E9
102
}
330
13E9
100
AcDbSortentsTable
330
75
331
E232
  5
B182
331
E21E
  5
B1E8
331
E236
  5
B1E3
331
ADCC
  5
B179
331
E22C
  5
B1ED
331
E231
  5
B181
331
E21D
  5
B1E7
331
E235
  5
B1E2
331
E22B
  5
B1EC
331
ADCB
  5
B062
331
E22F
  5
B1F0
331
ADD8
  5
B17C
331
E230
  5
B17E
331
E234
  5
B1E1
331
E22A
  5
B1EB
331
ADCA
  5
ADDB
331
ADCE
  5
B17B
331
E22E
  5
B1EF
331
E233
  5
B183
331
E229
  5
B1EA
331
ADC9
  5
ADDA
331
E21F
  5
B1E9
331
E237
  5
B1E5
331
ADCD
  5
B17A
331
E22D
  5
B1EE
  0
SORTENTSTABLE
  5
E812
102
{ACAD_REACTORS
330
E811
102
}
330
E811
100
AcDbSortentsTable
330
E810
  0
XRECORD
  5
1041A
102
{ACAD_REACTORS
330
10419
102
}
330
10419
100
AcDbXrecord
280
     1
 40
5416.0
  1
\A1;2÷8
  0
DIMASSOC
  5
EC44
102
{ACAD_REACTORS
330
EC43
102
}
330
EC43
100
AcDbDimAssoc
330
EC42
 90
        3
 70
     0
 71
     0
  1
AcDbOsnapPointRef
 72
    13
331
EC3F
 73
     2
 91
        0
 40
0.0
 10
0.0
 20
0.0
 30
2.000000000000000E+50
 75
     0
  1
AcDbOsnapPointRef
 72
     1
331
EC2C
 73
     2
 91
        0
 40
1.0
 10
0.0
 20
0.0
 30
2.000000000000000E+50
 75
     0
  0
DIMASSOC
  5
EC47
102
{ACAD_REACTORS
330
EC46
102
}
330
EC46
100
AcDbDimAssoc
330
EC45
 90
        1
 70
     0
 71
     0
  1
AcDbOsnapPointRef
 72
     2
331
EC40
 73
     2
 91
        0
 40
3.964165775463471
 10
0.0
 20
0.0
 30
0.0
 75
     0
  0
DIMASSOC
  5
EC63
102
{ACAD_REACTORS
330
EC62
102
}
330
EC62
100
AcDbDimAssoc
330
EC61
 90
        1
 70
     0
 71
     0
  1
AcDbOsnapPointRef
 72
     2
331
EC5E
 73
     2
 91
        0
 40
3.964165775463471
 10
0.0
 20
0.0
 30
0.0
 75
     0
  0
DBCOLOR
  5
1AAC
102
{ACAD_REACTORS
330
6B
102
}
330
6B
100
AcDbColor
  0
DBCOLOR
  5
1AAD
102
{ACAD_REACTORS
330
6B
102
}
330
6B
100
AcDbColor
  0
DBCOLOR
  5
FD
102
{ACAD_REACTORS
330
6B
102
}
330
6B
100
AcDbColor
  0
DBCOLOR
  5
1AAE
102
{ACAD_REACTORS
330
6B
102
}
330
6B
100
AcDbColor
  0
DBCOLOR
  5
1AAF
102
{ACAD_REACTORS
330
6B
102
}
330
6B
100
AcDbColor
  0
ACDBDETAILVIEWSTYLE
  5
D7E6
102
{ACAD_REACTORS
330
D7E5
102
}
330
D7E5
100
AcDbModelDocViewStyle
 70
     0
  3
Metric50
290
     0
100
AcDbDetailViewStyle
 70
     0
 71
     0
 90
        3
 71
     1
340
5D
 40
5.0
340
0
 40
5.0
300

 40
0.0
280
     1
 71
     2
340
65
 90
       25
 71
     3
340
5D
 40
5.0
 90
        0
 40
15.0
 90
        1
300
%<\AcVar ViewDetailId>% (%<\AcVar ViewScale \f "%sn">%)
 71
     4
340
65
 90
       25
340
65
 90
       25
280
     0
  0
LAYOUT
  5
74
102
{ACAD_XDICTIONARY
360
103FE
102
}
102
{ACAD_REACTORS
330
6A
102
}
330
6A
100
AcDbPlotSettings
  1

  2
HP LaserJet 5000 Series PCL6
  4

  6

 40
0.0
 41
0.0
 42
0.0
 43
0.0
 44
0.0
 45
0.0
 46
0.0
 47
0.0
 48
0.0
 49
0.0
140
0.0
141
0.0
142
1.0
143
1.0
 70
   688
 72
     0
 73
     0
 74
     5
  7
a4.ctb
 75
    16
147
1.0
148
0.0
149
0.0
100
AcDbLayout
  1
Layout1
 70
     1
 71
     1
 10
0.0
 20
0.0
 11
420.0
 21
297.0
 12
0.0
 22
0.0
 32
0.0
 14
1.000000000000000E+20
 24
1.000000000000000E+20
 34
1.000000000000000E+20
 15
-1.000000000000000E+20
 25
-1.000000000000000E+20
 35
-1.000000000000000E+20
146
0.0
 13
0.0
 23
0.0
 33
0.0
 16
1.0
 26
0.0
 36
0.0
 17
0.0
 27
1.0
 37
0.0
 76
     0
330
71
  0
LAYOUT
  5
7C
102
{ACAD_XDICTIONARY
360
10401
102
}
102
{ACAD_REACTORS
330
6A
102
}
330
6A
100
AcDbPlotSettings
  1

  2
HP LaserJet 5000 Series PCL6
  4

  6

 40
0.0
 41
0.0
 42
0.0
 43
0.0
 44
0.0
 45
0.0
 46
0.0
 47
0.0
 48
0.0
 49
0.0
140
0.0
141
0.0
142
1.0
143
1.0
 70
   688
 72
     0
 73
     0
 74
     5
  7
a4.ctb
 75
    16
147
1.0
148
0.0
149
0.0
100
AcDbLayout
  1
Layout2
 70
     1
 71
     2
 10
0.0
 20
0.0
 11
12.0
 21
9.0
 12
0.0
 22
0.0
 32
0.0
 14
0.0
 24
0.0
 34
0.0
 15
0.0
 25
0.0
 35
0.0
146
0.0
 13
0.0
 23
0.0
 33
0.0
 16
1.0
 26
0.0
 36
0.0
 17
0.0
 27
1.0
 37
0.0
 76
     0
330
79
  0
LAYOUT
  5
78
102
{ACAD_XDICTIONARY
360
10289
102
}
102
{ACAD_REACTORS
330
6A
102
}
330
6A
100
AcDbPlotSettings
  1

  2
HP LaserJet 5000 Series PCL6
  4
A4
  6

 40
6.720416545867919
 41
6.741571903228757
 42
7.715240478515625
 43
4.011077880859375
 44
209.9944915771484
 45
296.989501953125
 46
0.0
 47
0.0
 48
0.0
 49
0.0
140
0.0
141
0.0
142
1.0
143
83.23459799515426
 70
 11952
 72
     1
 73
     1
 74
     0
  7
a4.ctb
 75
     0
147
0.0120142347543772
148
-5877.421539165421
149
2387.770184140492
100
AcDbLayout
  1
Model
 70
     1
 71
     0
 10
0.0
 20
0.0
 11
12.0
 21
9.0
 12
0.0
 22
0.0
 32
0.0
 14
0.0
 24
0.0
 34
0.0
 15
0.0
 25
0.0
 35
0.0
146
0.0
 13
0.0
 23
0.0
 33
0.0
 16
1.0
 26
0.0
 36
0.0
 17
0.0
 27
1.0
 37
0.0
 76
     0
330
75
331
5F
1001
ACAD_PSEXT
1000
HP LaserJet 5000 Series PCL6
1000
HP LaserJet 5000 Series PCL6
1000
LPT1:
1000

1070
     0
  0
MATERIAL
  5
19
102
{ACAD_XDICTIONARY
360
1A
102
}
102
{ACAD_REACTORS
330
10
102
}
330
10
100
AcDbMaterial
  1
ByBlock
 72
     0
 43
0.0208333333333333
 43
0.0
 43
0.0
 43
0.0
 43
0.0
 43
0.0208333333333333
 43
0.0
 43
0.0
 43
0.0
 43
0.0
 43
1.0
 43
0.0
 43
0.0
 43
0.0
 43
0.0
 43
1.0
 77
     0
 47
0.0208333333333333
 47
0.0
 47
0.0
 47
0.0
 47
0.0
 47
0.0208333333333333
 47
0.0
 47
0.0
 47
0.0
 47
0.0
 47
1.0
 47
0.0
 47
0.0
 47
0.0
 47
0.0
 47
1.0
171
     0
 49
0.0208333333333333
 49
0.0
 49
0.0
 49
0.0
 49
0.0
 49
0.0208333333333333
 49
0.0
 49
0.0
 49
0.0
 49
0.0
 49
1.0
 49
0.0
 49
0.0
 49
0.0
 49
0.0
 49
1.0
175
     0
142
0.0208333333333333
142
0.0
142
0.0
142
0.0
142
0.0
142
0.0208333333333333
142
0.0
142
0.0
142
0.0
142
0.0
142
1.0
142
0.0
142
0.0
142
0.0
142
0.0
142
1.0
179
     0
144
0.0208333333333333
144
0.0
144
0.0
144
0.0
144
0.0
144
0.0208333333333333
144
0.0
144
0.0
144
0.0
144
0.0
144
1.0
144
0.0
144
0.0
144
0.0
144
0.0
144
1.0
147
0.0208333333333333
147
0.0
147
0.0
147
0.0
147
0.0
147
0.0208333333333333
147
0.0
147
0.0
147
0.0
147
0.0
147
1.0
147
0.0
147
0.0
147
0.0
147
0.0
147
1.0
  0
MATERIAL
  5
11
102
{ACAD_XDICTIONARY
360
12
102
}
102
{ACAD_REACTORS
330
10
102
}
330
10
100
AcDbMaterial
  1
ByLayer
 72
     0
 43
0.0208333333333333
 43
0.0
 43
0.0
 43
0.0
 43
0.0
 43
0.0208333333333333
 43
0.0
 43
0.0
 43
0.0
 43
0.0
 43
1.0
 43
0.0
 43
0.0
 43
0.0
 43
0.0
 43
1.0
 77
     0
 47
0.0208333333333333
 47
0.0
 47
0.0
 47
0.0
 47
0.0
 47
0.0208333333333333
 47
0.0
 47
0.0
 47
0.0
 47
0.0
 47
1.0
 47
0.0
 47
0.0
 47
0.0
 47
0.0
 47
1.0
171
     0
 49
0.0208333333333333
 49
0.0
 49
0.0
 49
0.0
 49
0.0
 49
0.0208333333333333
 49
0.0
 49
0.0
 49
0.0
 49
0.0
 49
1.0
 49
0.0
 49
0.0
 49
0.0
 49
0.0
 49
1.0
175
     0
142
0.0208333333333333
142
0.0
142
0.0
142
0.0
142
0.0
142
0.0208333333333333
142
0.0
142
0.0
142
0.0
142
0.0
142
1.0
142
0.0
142
0.0
142
0.0
142
0.0
142
1.0
179
     0
144
0.0208333333333333
144
0.0
144
0.0
144
0.0
144
0.0
144
0.0208333333333333
144
0.0
144
0.0
144
0.0
144
0.0
144
1.0
144
0.0
144
0.0
144
0.0
144
0.0
144
1.0
147
0.0208333333333333
147
0.0
147
0.0
147
0.0
147
0.0
147
0.0208333333333333
147
0.0
147
0.0
147
0.0
147
0.0
147
1.0
147
0.0
147
0.0
147
0.0
147
0.0
147
1.0
  0
MATERIAL
  5
21
102
{ACAD_XDICTIONARY
360
22
102
}
102
{ACAD_REACTORS
330
10
102
}
330
10
100
AcDbMaterial
  1
Global
 72
     0
 43
0.0208333333333333
 43
0.0
 43
0.0
 43
0.0
 43
0.0
 43
0.0208333333333333
 43
0.0
 43
0.0
 43
0.0
 43
0.0
 43
1.0
 43
0.0
 43
0.0
 43
0.0
 43
0.0
 43
1.0
 77
     0
 47
0.0208333333333333
 47
0.0
 47
0.0
 47
0.0
 47
0.0
 47
0.0208333333333333
 47
0.0
 47
0.0
 47
0.0
 47
0.0
 47
1.0
 47
0.0
 47
0.0
 47
0.0
 47
0.0
 47
1.0
171
     0
 49
0.0208333333333333
 49
0.0
 49
0.0
 49
0.0
 49
0.0
 49
0.0208333333333333
 49
0.0
 49
0.0
 49
0.0
 49
0.0
 49
1.0
 49
0.0
 49
0.0
 49
0.0
 49
0.0
 49
1.0
175
     0
142
0.0208333333333333
142
0.0
142
0.0
142
0.0
142
0.0
142
0.0208333333333333
142
0.0
142
0.0
142
0.0
142
0.0
142
1.0
142
0.0
142
0.0
142
0.0
142
0.0
142
1.0
179
     0
144
0.0208333333333333
144
0.0
144
0.0
144
0.0
144
0.0
144
0.0208333333333333
144
0.0
144
0.0
144
0.0
144
0.0
144
1.0
144
0.0
144
0.0
144
0.0
144
0.0
144
1.0
147
0.0208333333333333
147
0.0
147
0.0
147
0.0
147
0.0
147
0.0208333333333333
147
0.0
147
0.0
147
0.0
147
0.0
147
1.0
147
0.0
147
0.0
147
0.0
147
0.0
147
1.0
  0
MLEADERSTYLE
  5
6F
102
{ACAD_REACTORS
330
6E
102
}
330
6E
100
AcDbMLeaderStyle
170
     2
171
     1
172
     0
 90
        2
 40
0.0
 41
0.0
173
     1
 91
-1056964608
340
63
 92
       -2
290
     1
 42
0.09
291
     1
 43
0.36
  3
Standard
 44
0.18
300

342
5D
174
     1
178
     6
175
     1
176
     0
 93
-1056964608
 45
0.18
292
     0
297
     0
 46
0.18
 94
-1056964608
 47
1.0
 49
1.0
140
1.0
293
     1
141
0.0
294
     1
177
     0
142
1.0
295
     0
296
     0
143
0.125
1001
ACAD_MLEADERVER
1070
     2
  0
MLINESTYLE
  5
68
102
{ACAD_REACTORS
330
67
102
}
330
67
100
AcDbMlineStyle
  2
STANDARD
 70
     0
  3

 62
   256
 51
90.0
 52
90.0
 71
     2
 49
0.5
 62
   256
  6
BYLAYER
 49
-0.5
 62
   256
  6
BYLAYER
  0
ACDBPLACEHOLDER
  5
F
102
{ACAD_REACTORS
330
E
102
}
330
E
  0
SCALE
  5
B8E2
102
{ACAD_REACTORS
330
3A
102
}
330
3A
100
AcDbScale
 70
     0
300
1:3
140
1.0
141
3.0
290
     0
  0
SCALE
  5
3B
102
{ACAD_REACTORS
330
3A
102
}
330
3A
100
AcDbScale
 70
     0
300
1:1
140
1.0
141
1.0
290
     1
  0
SCALE
  5
3C
102
{ACAD_REACTORS
330
3A
102
}
330
3A
100
AcDbScale
 70
     0
300
1:2
140
1.0
141
2.0
290
     0
  0
SCALE
  5
3D
102
{ACAD_REACTORS
330
3A
102
}
330
3A
100
AcDbScale
 70
     0
300
1:4
140
1.0
141
4.0
290
     0
  0
SCALE
  5
3E
102
{ACAD_REACTORS
330
3A
102
}
330
3A
100
AcDbScale
 70
     0
300
1:5
140
1.0
141
5.0
290
     0
  0
SCALE
  5
3F
102
{ACAD_REACTORS
330
3A
102
}
330
3A
100
AcDbScale
 70
     0
300
1:8
140
1.0
141
8.0
290
     0
  0
SCALE
  5
40
102
{ACAD_REACTORS
330
3A
102
}
330
3A
100
AcDbScale
 70
     0
300
1:10
140
1.0
141
10.0
290
     0
  0
SCALE
  5
41
102
{ACAD_REACTORS
330
3A
102
}
330
3A
100
AcDbScale
 70
     0
300
1:16
140
1.0
141
16.0
290
     0
  0
SCALE
  5
42
102
{ACAD_REACTORS
330
3A
102
}
330
3A
100
AcDbScale
 70
     0
300
1:20
140
1.0
141
20.0
290
     0
  0
SCALE
  5
43
102
{ACAD_REACTORS
330
3A
102
}
330
3A
100
AcDbScale
 70
     0
300
1:30
140
1.0
141
30.0
290
     0
  0
SCALE
  5
44
102
{ACAD_REACTORS
330
3A
102
}
330
3A
100
AcDbScale
 70
     0
300
1:40
140
1.0
141
40.0
290
     0
  0
SCALE
  5
45
102
{ACAD_REACTORS
330
3A
102
}
330
3A
100
AcDbScale
 70
     0
300
1:50
140
1.0
141
50.0
290
     0
  0
SCALE
  5
46
102
{ACAD_REACTORS
330
3A
102
}
330
3A
100
AcDbScale
 70
     0
300
1:100
140
1.0
141
100.0
290
     0
  0
SCALE
  5
47
102
{ACAD_REACTORS
330
3A
102
}
330
3A
100
AcDbScale
 70
     0
300
2:1
140
2.0
141
1.0
290
     0
  0
SCALE
  5
48
102
{ACAD_REACTORS
330
3A
102
}
330
3A
100
AcDbScale
 70
     0
300
4:1
140
4.0
141
1.0
290
     0
  0
SCALE
  5
49
102
{ACAD_REACTORS
330
3A
102
}
330
3A
100
AcDbScale
 70
     0
300
8:1
140
8.0
141
1.0
290
     0
  0
SCALE
  5
4A
102
{ACAD_REACTORS
330
3A
102
}
330
3A
100
AcDbScale
 70
     0
300
10:1
140
10.0
141
1.0
290
     0
  0
SCALE
  5
4B
102
{ACAD_REACTORS
330
3A
102
}
330
3A
100
AcDbScale
 70
     0
300
100:1
140
100.0
141
1.0
290
     0
  0
SCALE
  5
4C
102
{ACAD_REACTORS
330
3A
102
}
330
3A
100
AcDbScale
 70
     0
300
1/128" = 1'-0"
140
0.0078125
141
12.0
290
     0
  0
SCALE
  5
4D
102
{ACAD_REACTORS
330
3A
102
}
330
3A
100
AcDbScale
 70
     0
300
1/64" = 1'-0"
140
0.015625
141
12.0
290
     0
  0
SCALE
  5
4E
102
{ACAD_REACTORS
330
3A
102
}
330
3A
100
AcDbScale
 70
     0
300
1/32" = 1'-0"
140
0.03125
141
12.0
290
     0
  0
SCALE
  5
4F
102
{ACAD_REACTORS
330
3A
102
}
330
3A
100
AcDbScale
 70
     0
300
1/16" = 1'-0"
140
0.0625
141
12.0
290
     0
  0
SCALE
  5
50
102
{ACAD_REACTORS
330
3A
102
}
330
3A
100
AcDbScale
 70
     0
300
3/32" = 1'-0"
140
0.09375
141
12.0
290
     0
  0
SCALE
  5
51
102
{ACAD_REACTORS
330
3A
102
}
330
3A
100
AcDbScale
 70
     0
300
1/8" = 1'-0"
140
0.125
141
12.0
290
     0
  0
SCALE
  5
52
102
{ACAD_REACTORS
330
3A
102
}
330
3A
100
AcDbScale
 70
     0
300
3/16" = 1'-0"
140
0.1875
141
12.0
290
     0
  0
SCALE
  5
53
102
{ACAD_REACTORS
330
3A
102
}
330
3A
100
AcDbScale
 70
     0
300
1/4" = 1'-0"
140
0.25
141
12.0
290
     0
  0
SCALE
  5
54
102
{ACAD_REACTORS
330
3A
102
}
330
3A
100
AcDbScale
 70
     0
300
3/8" = 1'-0"
140
0.375
141
12.0
290
     0
  0
SCALE
  5
55
102
{ACAD_REACTORS
330
3A
102
}
330
3A
100
AcDbScale
 70
     0
300
1/2" = 1'-0"
140
0.5
141
12.0
290
     0
  0
SCALE
  5
56
102
{ACAD_REACTORS
330
3A
102
}
330
3A
100
AcDbScale
 70
     0
300
3/4" = 1'-0"
140
0.75
141
12.0
290
     0
  0
SCALE
  5
57
102
{ACAD_REACTORS
330
3A
102
}
330
3A
100
AcDbScale
 70
     0
300
1" = 1'-0"
140
1.0
141
12.0
290
     0
  0
SCALE
  5
58
102
{ACAD_REACTORS
330
3A
102
}
330
3A
100
AcDbScale
 70
     0
300
1-1/2" = 1'-0"
140
1.5
141
12.0
290
     0
  0
SCALE
  5
59
102
{ACAD_REACTORS
330
3A
102
}
330
3A
100
AcDbScale
 70
     0
300
3" = 1'-0"
140
3.0
141
12.0
290
     0
  0
SCALE
  5
5A
102
{ACAD_REACTORS
330
3A
102
}
330
3A
100
AcDbScale
 70
     0
300
6" = 1'-0"
140
6.0
141
12.0
290
     0
  0
SCALE
  5
5B
102
{ACAD_REACTORS
330
3A
102
}
330
3A
100
AcDbScale
 70
     0
300
1'-0" = 1'-0"
140
12.0
141
12.0
290
     0
  0
ACDBSECTIONVIEWSTYLE
  5
D7E4
102
{ACAD_REACTORS
330
D7E3
102
}
330
D7E3
100
AcDbModelDocViewStyle
 70
     0
  3
Metric50
290
     0
100
AcDbSectionViewStyle
 70
     0
 71
     0
 90
      102
 71
     1
340
5D
 40
5.0
340
0
340
0
 40
5.0
300
I, O, Q, S, X, Z
 40
10.0
 90
        0
 40
2.5
 90
        0
 71
     2
340
65
 90
       25
340
65
 90
       50
 40
5.0
 40
2.5
 40
5.0
 71
     3
340
5D
 40
5.0
 90
        0
 40
15.0
 90
        1
300
%<\AcVar ViewSectionStartId>%-%<\AcVar ViewSectionEndId>% (%<\AcVar ViewScale \f "%sn">%)
 71
     4
300
ANSI31
 40
1.0
 90
        0
290
     0
290
     0
 90
        6
 40
0.0
 40
1.570796326794896
 40
0.2617993877991494
 40
1.308996938995747
 40
-0.2617993877991494
 40
1.832595714594044
  0
TABLESTYLE
  5
6D
102
{ACAD_XDICTIONARY
360
104
102
}
102
{ACAD_REACTORS
330
6C
102
}
330
6C
100
AcDbTableStyle
  3
Standard
 70
     0
 71
     0
 40
1.5
 41
1.5
280
     0
281
     0
  7
Standard
140
4.5
170
     2
 62
     0
 63
     7
283
     0
274
    -2
284
     1
 64
     0
275
    -2
285
     1
 65
     0
276
    -2
286
     1
 66
     0
277
    -2
287
     1
 67
     0
278
    -2
288
     1
 68
     0
279
    -2
289
     1
 69
     0
  7
Standard
140
6.0
170
     5
 62
     0
 63
     7
283
     0
274
    -2
284
     1
 64
     0
275
    -2
285
     1
 65
     0
276
    -2
286
     1
 66
     0
277
    -2
287
     1
 67
     0
278
    -2
288
     1
 68
     0
279
    -2
289
     1
 69
     0
  7
Standard
140
4.5
170
     5
 62
     0
 63
     7
283
     0
274
    -2
284
     1
 64
     0
275
    -2
285
     1
 65
     0
276
    -2
286
     1
 66
     0
277
    -2
287
     1
 67
     0
278
    -2
288
     1
 68
     0
279
    -2
289
     1
 69
     0
  0
VISUALSTYLE
  5
2F
102
{ACAD_XDICTIONARY
360
103E7
102
}
102
{ACAD_REACTORS
330
29
102
}
330
29
100
AcDbVisualStyle
  2

 70
     4
 71
     0
 72
     2
 73
     0
 90
        0
 40
-0.6
 41
-30.0
 62
     5
 63
     7
 74
     1
 91
        4
 64
     7
 65
   257
 75
     1
175
     1
 42
1.0
 92
        0
 66
   257
 43
1.0
 76
     1
 77
     6
 78
     2
 67
     7
 79
     5
170
     0
171
     0
290
     0
174
     0
 93
        1
 44
0.0
173
     0
291
     0
 45
0.0
1001
ACAD
1000
AcDbSavedByObjectVersion
1070
     0
  0
VISUALSTYLE
  5
31
102
{ACAD_XDICTIONARY
360
103EB
102
}
102
{ACAD_REACTORS
330
29
102
}
330
29
100
AcDbVisualStyle
  2

 70
     6
 71
     1
 72
     2
 73
     2
 90
        0
 40
-0.6
 41
-30.0
 62
     5
 63
     7
 74
     2
 91
        2
 64
     7
 65
   257
 75
     2
175
     1
 42
40.0
 92
        0
 66
   257
 43
1.0
 76
     1
 77
     6
 78
     2
 67
     7
 79
     3
170
     0
171
     0
290
     0
174
     0
 93
        1
 44
0.0
173
     0
291
     0
 45
0.0
1001
ACAD
1000
AcDbSavedByObjectVersion
1070
     0
  0
VISUALSTYLE
  5
30
102
{ACAD_XDICTIONARY
360
103E9
102
}
102
{ACAD_REACTORS
330
29
102
}
330
29
100
AcDbVisualStyle
  2

 70
     5
 71
     0
 72
     2
 73
     0
 90
        0
 40
-0.6
 41
-30.0
 62
     5
 63
     7
 74
     1
 91
        4
 64
     7
 65
   257
 75
     1
175
     1
 42
1.0
 92
        0
 66
   257
 43
1.0
 76
     1
 77
     6
 78
     2
 67
     7
 79
     5
170
     0
171
     0
290
     0
174
     0
 93
        1
 44
0.0
173
     0
291
     0
 45
0.0
1001
ACAD
1000
AcDbSavedByObjectVersion
1070
     0
  0
VISUALSTYLE
  5
2E
102
{ACAD_XDICTIONARY
360
103E5
102
}
102
{ACAD_REACTORS
330
29
102
}
330
29
100
AcDbVisualStyle
  2

 70
     7
 71
     1
 72
     0
 73
     1
 90
        0
 40
-0.6
 41
-30.0
 62
     5
 63
     7
 74
     0
 91
        4
 64
     7
 65
   257
 75
     1
175
     1
 42
1.0
 92
        8
 66
     7
 43
1.0
 76
     1
 77
     6
 78
     2
 67
     7
 79
     5
170
     0
171
     0
290
     0
174
     0
 93
        1
 44
0.0
173
     0
291
     1
 45
0.0
1001
ACAD
1000
AcDbSavedByObjectVersion
1070
     0
  0
VISUALSTYLE
  5
35
102
{ACAD_XDICTIONARY
360
103F3
102
}
102
{ACAD_REACTORS
330
29
102
}
330
29
100
AcDbVisualStyle
  2

 70
    12
 71
     2
 72
     2
 73
     0
 90
        0
 40
-0.6
 41
-30.0
 62
     5
 63
     7
 74
     1
 91
        4
 64
     7
 65
   257
 75
     1
175
     1
 42
1.0
 92
        8
 66
     7
 43
1.0
 76
     1
 77
     6
 78
     2
 67
     7
 79
     5
170
     0
171
     0
290
     0
174
     0
 93
        1
 44
50.0
173
     0
291
     1
 45
0.0
1001
ACAD
1000
AcDbSavedByObjectVersion
1070
     0
  0
VISUALSTYLE
  5
39
102
{ACAD_XDICTIONARY
360
103FB
102
}
102
{ACAD_REACTORS
330
29
102
}
330
29
100
AcDbVisualStyle
  2

 70
    16
 71
     2
 72
     2
 73
     3
 90
        0
 40
-0.6
 41
-30.0
 62
     5
 63
     8
 74
     1
 91
        4
 64
     7
 65
   257
 75
     1
175
     1
 42
1.0
 92
        8
 66
     8
 43
1.0
 76
     1
 77
     6
 78
     2
 67
     7
 79
     5
170
     0
171
     0
290
     0
174
     0
 93
        1
 44
0.0
173
     0
291
     1
 45
0.0
1001
ACAD
1000
AcDbSavedByObjectVersion
1070
     0
  0
VISUALSTYLE
  5
32
102
{ACAD_XDICTIONARY
360
103ED
102
}
102
{ACAD_REACTORS
330
29
102
}
330
29
100
AcDbVisualStyle
  2

 70
     9
 71
     3
 72
     2
 73
     0
 90
        0
 40
-0.6
 41
-30.0
 62
     5
 63
     7
 74
     2
 91
        2
 64
     7
 65
   257
 75
     1
175
     1
 42
40.0
 92
        8
 66
     7
 43
1.0
 76
     1
 77
     6
 78
     2
 67
     7
 79
     3
170
     0
171
     0
290
     0
174
     0
 93
        1
 44
0.0
173
     0
291
     0
 45
0.0
1001
ACAD
1000
AcDbSavedByObjectVersion
1070
     0
  0
VISUALSTYLE
  5
34
102
{ACAD_XDICTIONARY
360
103F1
102
}
102
{ACAD_REACTORS
330
29
102
}
330
29
100
AcDbVisualStyle
  2

 70
    11
 71
     2
 72
     2
 73
     0
 90
        0
 40
-0.6
 41
-30.0
 62
     5
 63
     7
 74
     1
 91
        4
 64
     7
 65
   257
 75
     1
175
     1
 42
1.0
 92
        8
 66
     7
 43
1.0
 76
     1
 77
     6
 78
     2
 67
     7
 79
     5
170
     0
171
     0
290
     0
174
     0
 93
        1
 44
-50.0
173
     0
291
     1
 45
0.0
1001
ACAD
1000
AcDbSavedByObjectVersion
1070
     0
  0
VISUALSTYLE
  5
D7E2
102
{ACAD_XDICTIONARY
360
10415
102
}
102
{ACAD_REACTORS
330
29
102
}
330
29
100
AcDbVisualStyle
  2

 70
    22
 71
     2
 72
     2
 73
     0
 90
        0
 40
-0.6
 41
-30.0
 62
     5
 63
     7
 74
     1
 91
        4
 64
     7
 65
   257
 75
     1
175
     1
 42
1.0
 92
        8
 66
     7
 43
1.0
 76
     1
 77
     6
 78
     2
 67
     7
 79
     5
170
     0
171
     0
290
     0
174
     0
 93
        1
 44
0.0
173
     0
291
     1
 45
0.0
1001
ACAD
1000
AcDbSavedByObjectVersion
1070
     0
  0
VISUALSTYLE
  5
38
102
{ACAD_XDICTIONARY
360
103F9
102
}
102
{ACAD_REACTORS
330
29
102
}
330
29
100
AcDbVisualStyle
  2

 70
    15
 71
     2
 72
     2
 73
     0
 90
        0
 40
-0.6
 41
-30.0
 62
     5
 63
     7
 74
     1
 91
        4
 64
     7
 65
   257
 75
     1
175
     1
 42
1.0
 92
        8
 66
     7
 43
1.0
 76
     1
 77
     6
 78
     2
 67
     7
 79
     5
170
     0
171
     0
290
     0
174
     0
 93
        1
 44
0.0
173
     0
291
     1
 45
0.0
1001
ACAD
1000
AcDbSavedByObjectVersion
1070
     0
  0
VISUALSTYLE
  5
2A
102
{ACAD_XDICTIONARY
360
103DD
102
}
102
{ACAD_REACTORS
330
29
102
}
330
29
100
AcDbVisualStyle
  2

 70
     0
 71
     2
 72
     1
 73
     1
 90
        2
 40
-0.6
 41
30.0
 62
     5
 63
     7
 74
     0
 91
        4
 64
     7
 65
   257
 75
     1
175
     1
 42
1.0
 92
        8
 66
     7
 43
1.0
 76
     1
 77
     6
 78
     2
 67
     7
 79
     5
170
     0
171
     0
290
     0
174
     0
 93
       13
 44
0.0
173
     0
291
     1
 45
0.0
1001
ACAD
1000
AcDbSavedByObjectVersion
1070
     0
  0
VISUALSTYLE
  5
2B
102
{ACAD_XDICTIONARY
360
103DF
102
}
102
{ACAD_REACTORS
330
29
102
}
330
29
100
AcDbVisualStyle
  2

 70
     1
 71
     2
 72
     1
 73
     1
 90
        2
 40
-0.6
 41
30.0
 62
     5
 63
     7
 74
     1
 91
        4
 64
     7
 65
   257
 75
     1
175
     1
 42
1.0
 92
        0
 66
   257
 43
1.0
 76
     1
 77
     6
 78
     2
 67
     7
 79
     5
170
     0
171
     0
290
     0
174
     0
 93
       13
 44
0.0
173
     0
291
     1
 45
0.0
1001
ACAD
1000
AcDbSavedByObjectVersion
1070
     0
  0
VISUALSTYLE
  5
2C
102
{ACAD_XDICTIONARY
360
103E1
102
}
102
{ACAD_REACTORS
330
29
102
}
330
29
100
AcDbVisualStyle
  2

 70
     2
 71
     2
 72
     2
 73
     1
 90
        2
 40
-0.6
 41
30.0
 62
     5
 63
     7
 74
     0
 91
        4
 64
     7
 65
   257
 75
     1
175
     1
 42
1.0
 92
        0
 66
     7
 43
1.0
 76
     1
 77
     6
 78
     2
 67
     7
 79
     5
170
     0
171
     0
290
     0
174
     0
 93
       13
 44
0.0
173
     0
291
     1
 45
0.0
1001
ACAD
1000
AcDbSavedByObjectVersion
1070
     0
  0
VISUALSTYLE
  5
2D
102
{ACAD_XDICTIONARY
360
103E3
102
}
102
{ACAD_REACTORS
330
29
102
}
330
29
100
AcDbVisualStyle
  2

 70
     3
 71
     2
 72
     2
 73
     1
 90
        2
 40
-0.6
 41
30.0
 62
     5
 63
     7
 74
     1
 91
        4
 64
     7
 65
   257
 75
     1
175
     1
 42
1.0
 92
        0
 66
   257
 43
1.0
 76
     1
 77
     6
 78
     2
 67
     7
 79
     5
170
     0
171
     0
290
     0
174
     0
 93
       13
 44
0.0
173
     0
291
     1
 45
0.0
1001
ACAD
1000
AcDbSavedByObjectVersion
1070
     0
  0
VISUALSTYLE
  5
D7DA
102
{ACAD_XDICTIONARY
360
10405
102
}
102
{ACAD_REACTORS
330
29
102
}
330
29
100
AcDbVisualStyle
  2

 70
     6
 71
     1
 72
     2
 73
     2
 90
        0
 40
-0.6
 41
-30.0
 62
     5
 63
     7
 74
     2
 91
        2
 64
     7
 65
   257
 75
     2
175
     1
 42
40.0
 92
        0
 66
   257
 43
1.0
 76
     1
 77
     6
 78
     2
 67
     7
 79
     3
170
     0
171
     0
290
     0
174
     0
 93
        1
 44
0.0
173
     0
291
     0
 45
0.0
1001
ACAD
1000
AcDbSavedByObjectVersion
1070
     0
  0
VISUALSTYLE
  5
D7E0
102
{ACAD_XDICTIONARY
360
10411
102
}
102
{ACAD_REACTORS
330
29
102
}
330
29
100
AcDbVisualStyle
  2

 70
    20
 71
     2
 72
     2
 73
     0
 90
        0
 40
-0.6
 41
-30.0
 62
     5
 63
     7
 74
     1
 91
        4
 64
     7
 65
   257
 75
     1
175
     1
 42
1.0
 92
       10
 66
     7
 43
1.0
 76
     1
 77
     6
 78
     2
 67
     7
 79
     5
170
     0
171
     0
290
     0
174
     0
 93
        1
 44
0.0
173
     0
291
     1
 45
0.0
1001
ACAD
1000
AcDbSavedByObjectVersion
1070
     0
  0
VISUALSTYLE
  5
37
102
{ACAD_XDICTIONARY
360
103F7
102
}
102
{ACAD_REACTORS
330
29
102
}
330
29
100
AcDbVisualStyle
  2

 70
    14
 71
     2
 72
     2
 73
     0
 90
        0
 40
-0.6
 41
-30.0
 62
     5
 63
     7
 74
     1
 91
        4
 64
     7
 65
   257
 75
     7
175
     7
 42
1.0
 92
        8
 66
     7
 43
1.0
 76
     1
 77
     6
 78
     2
 67
     7
 79
     5
170
     0
171
     0
290
     0
174
     0
 93
        1
 44
0.0
173
     0
291
     1
 45
0.0
1001
ACAD
1000
AcDbSavedByObjectVersion
1070
     0
  0
VISUALSTYLE
  5
D7E1
102
{ACAD_XDICTIONARY
360
10413
102
}
102
{ACAD_REACTORS
330
29
102
}
330
29
100
AcDbVisualStyle
  2

 70
    21
 71
     2
 72
     2
 73
     0
 90
        0
 40
-0.6
 41
-30.0
 62
     5
 63
     7
 74
     1
 91
        4
 64
     7
 65
   257
 75
     1
175
     1
 42
1.0
 92
        9
 66
     7
 43
1.0
 76
     1
 77
     6
 78
     2
 67
     7
 79
     5
170
     0
171
     0
290
     0
174
     0
 93
        1
 44
0.0
173
     0
291
     1
 45
0.0
1001
ACAD
1000
AcDbSavedByObjectVersion
1070
     0
  0
VISUALSTYLE
  5
33
102
{ACAD_XDICTIONARY
360
103EF
102
}
102
{ACAD_REACTORS
330
29
102
}
330
29
100
AcDbVisualStyle
  2

 70
     8
 71
     2
 72
     2
 73
     0
 90
        0
 40
-0.6
 41
-30.0
 62
     5
 63
     7
 74
     1
 91
        0
 64
     7
 65
   257
 75
     1
175
     1
 42
1.0
 92
        8
 66
     8
 43
1.0
 76
     1
 77
     6
 78
     2
 67
     7
 79
     5
170
     0
171
     0
290
     0
174
     0
 93
       13
 44
0.0
173
     0
291
     0
 45
0.0
1001
ACAD
1000
AcDbSavedByObjectVersion
1070
     0
  0
VISUALSTYLE
  5
D7DF
102
{ACAD_XDICTIONARY
360
1040F
102
}
102
{ACAD_REACTORS
330
29
102
}
330
29
100
AcDbVisualStyle
  2

 70
    27
 71
     2
 72
     2
 73
     1
 90
        2
 40
-0.6
 41
30.0
 62
     5
 63
     7
 74
     0
 91
        4
 64
     7
 65
   257
 75
     1
175
     1
 42
1.0
 92
        8
 66
   257
 43
1.0
 76
     1
 77
     6
 78
     2
 67
     8
 79
     3
170
     0
171
     0
290
     0
174
     0
 93
        5
 44
0.0
173
     0
291
     0
 45
0.0
1001
ACAD
1000
AcDbSavedByObjectVersion
1070
     0
  0
VISUALSTYLE
  5
D7DE
102
{ACAD_XDICTIONARY
360
1040D
102
}
102
{ACAD_REACTORS
330
29
102
}
330
29
100
AcDbVisualStyle
  2

 70
    26
 71
     2
 72
     2
 73
     1
 90
        2
 40
-0.6
 41
30.0
 62
     5
 63
     7
 74
     1
 91
       10
 64
     7
 65
   257
 75
     2
175
     1
 42
1.0
 92
        8
 66
   257
 43
1.0
 76
     1
 77
     6
 78
     2
 67
     7
 79
     3
170
     0
171
     0
290
     0
174
     0
 93
        5
 44
0.0
173
     0
291
     0
 45
0.0
1001
ACAD
1000
AcDbSavedByObjectVersion
1070
     0
  0
VISUALSTYLE
  5
D7DB
102
{ACAD_XDICTIONARY
360
10407
102
}
102
{ACAD_REACTORS
330
29
102
}
330
29
100
AcDbVisualStyle
  2

 70
    23
 71
     2
 72
     2
 73
     3
 90
        0
 40
-0.6
 41
-30.0
 62
     5
 63
     7
 74
     2
 91
        2
 64
     7
 65
     7
 75
     1
175
     1
 42
40.0
 92
        8
 66
     7
 43
1.0
 76
     1
 77
     6
 78
     2
 67
     7
 79
     3
170
     0
171
     0
290
     0
174
     0
 93
        1
 44
0.0
173
     0
291
     0
 45
0.0
1001
ACAD
1000
AcDbSavedByObjectVersion
1070
     0
  0
VISUALSTYLE
  5
D7DC
102
{ACAD_XDICTIONARY
360
10409
102
}
102
{ACAD_REACTORS
330
29
102
}
330
29
100
AcDbVisualStyle
  2

 70
    24
 71
     1
 72
     2
 73
     2
 90
        0
 40
-0.6
 41
-30.0
 62
     5
 63
     7
 74
     2
 91
        2
 64
     7
 65
     7
 75
     1
175
     1
 42
40.0
 92
       11
 66
     7
 43
1.0
 76
     1
 77
     6
 78
     2
 67
     7
 79
     6
170
     0
171
     0
290
     0
174
     0
 93
        1
 44
0.0
173
     0
291
     0
 45
0.0
1001
ACAD
1000
AcDbSavedByObjectVersion
1070
     0
  0
VISUALSTYLE
  5
36
102
{ACAD_XDICTIONARY
360
103F5
102
}
102
{ACAD_REACTORS
330
29
102
}
330
29
100
AcDbVisualStyle
  2

 70
    13
 71
     2
 72
     2
 73
     0
 90
        0
 40
-0.6
 41
-30.0
 62
     5
 63
     7
 74
     1
 91
        4
 64
     7
 65
   257
 75
     1
175
     1
 42
1.0
 92
       12
 66
     7
 43
1.0
 76
     1
 77
     6
 78
     2
 67
     7
 79
     5
170
     0
171
     0
290
     0
174
     0
 93
        1
 44
0.0
173
     0
291
     1
 45
0.0
1001
ACAD
1000
AcDbSavedByObjectVersion
1070
     0
  0
VISUALSTYLE
  5
D7D9
102
{ACAD_XDICTIONARY
360
10403
102
}
102
{ACAD_REACTORS
330
29
102
}
330
29
100
AcDbVisualStyle
  2

 70
     5
 71
     0
 72
     2
 73
     0
 90
        0
 40
-0.6
 41
-30.0
 62
     5
 63
     7
 74
     1
 91
        4
 64
     7
 65
   257
 75
     1
175
     1
 42
1.0
 92
        0
 66
   257
 43
1.0
 76
     1
 77
     6
 78
     2
 67
     7
 79
     3
170
     0
171
     0
290
     0
174
     0
 93
        1
 44
0.0
173
     0
291
     0
 45
0.0
1001
ACAD
1000
AcDbSavedByObjectVersion
1070
     0
  0
VISUALSTYLE
  5
D7DD
102
{ACAD_XDICTIONARY
360
1040B
102
}
102
{ACAD_REACTORS
330
29
102
}
330
29
100
AcDbVisualStyle
  2

 70
    25
 71
     2
 72
     2
 73
     1
 90
        1
 40
0.5
 41
-30.0
 62
     5
 63
     7
 74
     1
 91
        0
 64
     7
 65
   257
 75
     1
175
     1
 42
1.0
 92
        8
 66
     7
 43
1.0
 76
     1
 77
     6
 78
     2
 67
     7
 79
     3
170
     0
171
     0
290
     0
174
     0
 93
       13
 44
0.0
173
     0
291
     0
 45
0.0
1001
ACAD
1000
AcDbSavedByObjectVersion
1070
     0
  0
DICTIONARYVAR
  5
11E
102
{ACAD_REACTORS
330
11A
102
}
330
11A
100
DictionaryVariables
280
     0
  1
1:1
  0
DICTIONARYVAR
  5
11C
102
{ACAD_REACTORS
330
11A
102
}
330
11A
100
DictionaryVariables
280
     0
  1
STANDARD
  0
DICTIONARYVAR
  5
11B
102
{ACAD_REACTORS
330
11A
102
}
330
11A
100
DictionaryVariables
280
     0
  1
STANDARD
  0
DICTIONARYVAR
  5
D9AF
102
{ACAD_REACTORS
330
11A
102
}
330
11A
100
DictionaryVariables
280
     0
  1
Metric50
  0
DICTIONARYVAR
  5
D9B0
102
{ACAD_REACTORS
330
11A
102
}
330
11A
100
DictionaryVariables
280
     0
  1
Metric50
  0
DICTIONARYVAR
  5
123
102
{ACAD_REACTORS
330
11A
102
}
330
11A
100
DictionaryVariables
280
     0
  1
2
  0
DICTIONARYVAR
  5
1028C
102
{ACAD_REACTORS
330
11A
102
}
330
11A
100
DictionaryVariables
280
     0
  1
2
  0
DICTIONARYVAR
  5
1028B
102
{ACAD_REACTORS
330
11A
102
}
330
11A
100
DictionaryVariables
280
     0
  1
1
  0
DICTIONARYVAR
  5
122
102
{ACAD_REACTORS
330
11A
102
}
330
11A
100
DictionaryVariables
280
     0
  1
1
  0
DICTIONARYVAR
  5
121
102
{ACAD_REACTORS
330
11A
102
}
330
11A
100
DictionaryVariables
280
     0
  1
0
  0
DICTIONARYVAR
  5
11F
102
{ACAD_REACTORS
330
11A
102
}
330
11A
100
DictionaryVariables
280
     0
  1
2
  0
DICTIONARYVAR
  5
11D
102
{ACAD_REACTORS
330
11A
102
}
330
11A
100
DictionaryVariables
280
     0
  1
1
  0
DICTIONARYVAR
  5
120
102
{ACAD_REACTORS
330
11A
102
}
330
11A
100
DictionaryVariables
280
     0
  1
127
  0
DICTIONARYVAR
  5
10397
102
{ACAD_REACTORS
330
11A
102
}
330
11A
100
DictionaryVariables
280
     0
  1
2
  0
XRECORD
  5
B846
102
{ACAD_REACTORS
330
B845
102
}
330
B845
100
AcDbXrecord
280
     1
330
A982
330
A983
330
A987
330
A988
330
A989
330
A98A
330
A98B
330
A98C
330
A98D
330
A98E
330
A98F
330
A990
330
0
330
B17D
330
B17E
330
B17F
330
B196
330
0
330
B19E
330
B19F
330
B1A0
330
B1EC
330
B1ED
330
ADC1
330
ADC2
330
ADC3
330
ADC4
330
ADC5
330
ADC6
330
ADC7
330
ADC8
330
ADD9
330
ADDB
330
0
330
0
330
0
330
0
330
0
330
0
330
0
330
0
330
0
330
0
330
0
330
0
330
0
330
0
330
0
330
0
330
0
330
0
330
0
330
0
330
0
330
0
330
0
330
0
330
0
330
0
330
0
330
0
330
0
330
0
330
0
330
0
330
0
330
0
330
0
330
0
330
0
330
0
330
0
330
0
330
0
330
0
330
0
330
0
330
0
330
0
330
0
330
0
330
0
330
0
330
0
330
0
330
0
330
0
330
0
330
0
330
0
330
0
330
6AA4
330
0
330
0
330
0
330
0
330
0
330
0
330
0
330
0
330
0
330
0
  0
DICTIONARY
  5
103FE
330
74
100
AcDbDictionary
280
     1
281
     1
  3
ACAD_XREC_ROUNDTRIP
360
103FF
  0
DICTIONARY
  5
10401
330
7C
100
AcDbDictionary
280
     1
281
     1
  3
ACAD_XREC_ROUNDTRIP
360
10402
  0
DICTIONARY
  5
10289
330
78
100
AcDbDictionary
280
     1
281
     1
  3
ACAD_XREC_ROUNDTRIP
360
10400
  3
AcPublish_PlotSettingsOverride
360
1028A
  0
DICTIONARY
  5
1A
330
19
100
AcDbDictionary
280
     1
281
     1
  3
ACAD_XREC_ROUNDTRIP
360
F3BF
  3
BUMPTILE
360
1C
  3
DIFFUSETILE
360
1B
  3
OPACITYTILE
360
1F
  3
REFLECTIONTILE
360
1E
  3
REFRACTIONTILE
360
20
  3
SPECULARTILE
360
1D
  0
DICTIONARY
  5
12
330
11
100
AcDbDictionary
280
     1
281
     1
  3
ACAD_XREC_ROUNDTRIP
360
F3BE
  3
BUMPTILE
360
14
  3
DIFFUSETILE
360
13
  3
OPACITYTILE
360
17
  3
REFLECTIONTILE
360
16
  3
REFRACTIONTILE
360
18
  3
SPECULARTILE
360
15
  0
DICTIONARY
  5
22
330
21
100
AcDbDictionary
280
     1
281
     1
  3
ACAD_XREC_ROUNDTRIP
360
F3C0
  3
BUMPTILE
360
24
  3
DIFFUSETILE
360
23
  3
OPACITYTILE
360
27
  3
REFLECTIONTILE
360
26
  3
REFRACTIONTILE
360
28
  3
SPECULARTILE
360
25
  0
DICTIONARY
  5
104
330
6D
100
AcDbDictionary
280
     1
281
     1
  3
ACAD_ROUNDTRIP_2008_TABLESTYLE_CELLSTYLEMAP
360
103DA
  3
ACAD_XREC_ROUNDTRIP
360
103FD
  0
DICTIONARY
  5
103E7
330
2F
100
AcDbDictionary
280
     1
281
     1
  3
ACAD_XREC_ROUNDTRIP
360
103E8
  0
DICTIONARY
  5
103EB
330
31
100
AcDbDictionary
280
     1
281
     1
  3
ACAD_XREC_ROUNDTRIP
360
103EC
  0
DICTIONARY
  5
103E9
330
30
100
AcDbDictionary
280
     1
281
     1
  3
ACAD_XREC_ROUNDTRIP
360
103EA
  0
DICTIONARY
  5
103E5
330
2E
100
AcDbDictionary
280
     1
281
     1
  3
ACAD_XREC_ROUNDTRIP
360
103E6
  0
DICTIONARY
  5
103F3
330
35
100
AcDbDictionary
280
     1
281
     1
  3
ACAD_XREC_ROUNDTRIP
360
103F4
  0
DICTIONARY
  5
103FB
330
39
100
AcDbDictionary
280
     1
281
     1
  3
ACAD_XREC_ROUNDTRIP
360
103FC
  0
DICTIONARY
  5
103ED
330
32
100
AcDbDictionary
280
     1
281
     1
  3
ACAD_XREC_ROUNDTRIP
360
103EE
  0
DICTIONARY
  5
103F1
330
34
100
AcDbDictionary
280
     1
281
     1
  3
ACAD_XREC_ROUNDTRIP
360
103F2
  0
DICTIONARY
  5
10415
330
D7E2
100
AcDbDictionary
280
     1
281
     1
  3
ACAD_XREC_ROUNDTRIP
360
10416
  0
DICTIONARY
  5
103F9
330
38
100
AcDbDictionary
280
     1
281
     1
  3
ACAD_XREC_ROUNDTRIP
360
103FA
  0
DICTIONARY
  5
103DD
330
2A
100
AcDbDictionary
280
     1
281
     1
  3
ACAD_XREC_ROUNDTRIP
360
103DE
  0
DICTIONARY
  5
103DF
330
2B
100
AcDbDictionary
280
     1
281
     1
  3
ACAD_XREC_ROUNDTRIP
360
103E0
  0
DICTIONARY
  5
103E1
330
2C
100
AcDbDictionary
280
     1
281
     1
  3
ACAD_XREC_ROUNDTRIP
360
103E2
  0
DICTIONARY
  5
103E3
330
2D
100
AcDbDictionary
280
     1
281
     1
  3
ACAD_XREC_ROUNDTRIP
360
103E4
  0
DICTIONARY
  5
10405
330
D7DA
100
AcDbDictionary
280
     1
281
     1
  3
ACAD_XREC_ROUNDTRIP
360
10406
  0
DICTIONARY
  5
10411
330
D7E0
100
AcDbDictionary
280
     1
281
     1
  3
ACAD_XREC_ROUNDTRIP
360
10412
  0
DICTIONARY
  5
103F7
330
37
100
AcDbDictionary
280
     1
281
     1
  3
ACAD_XREC_ROUNDTRIP
360
103F8
  0
DICTIONARY
  5
10413
330
D7E1
100
AcDbDictionary
280
     1
281
     1
  3
ACAD_XREC_ROUNDTRIP
360
10414
  0
DICTIONARY
  5
103EF
330
33
100
AcDbDictionary
280
     1
281
     1
  3
ACAD_XREC_ROUNDTRIP
360
103F0
  0
DICTIONARY
  5
1040F
330
D7DF
100
AcDbDictionary
280
     1
281
     1
  3
ACAD_XREC_ROUNDTRIP
360
10410
  0
DICTIONARY
  5
1040D
330
D7DE
100
AcDbDictionary
280
     1
281
     1
  3
ACAD_XREC_ROUNDTRIP
360
1040E
  0
DICTIONARY
  5
10407
330
D7DB
100
AcDbDictionary
280
     1
281
     1
  3
ACAD_XREC_ROUNDTRIP
360
10408
  0
DICTIONARY
  5
10409
330
D7DC
100
AcDbDictionary
280
     1
281
     1
  3
ACAD_XREC_ROUNDTRIP
360
1040A
  0
DICTIONARY
  5
103F5
330
36
100
AcDbDictionary
280
     1
281
     1
  3
ACAD_XREC_ROUNDTRIP
360
103F6
  0
DICTIONARY
  5
10403
330
D7D9
100
AcDbDictionary
280
     1
281
     1
  3
ACAD_XREC_ROUNDTRIP
360
10404
  0
DICTIONARY
  5
1040B
330
D7DD
100
AcDbDictionary
280
     1
281
     1
  3
ACAD_XREC_ROUNDTRIP
360
1040C
  0
XRECORD
  5
103FF
102
{ACAD_REACTORS
330
103FE
102
}
330
103FE
100
AcDbXrecord
280
     1
102
SHADEPLOT
 70
     0
102
SHADEPLOTRESLEVEL
 70
     2
102
SHADEPLOTCUSTOMDPI
 70
   300
  0
XRECORD
  5
10402
102
{ACAD_REACTORS
330
10401
102
}
330
10401
100
AcDbXrecord
280
     1
102
SHADEPLOT
 70
     0
102
SHADEPLOTRESLEVEL
 70
     2
102
SHADEPLOTCUSTOMDPI
 70
   300
  0
XRECORD
  5
10400
102
{ACAD_REACTORS
330
10289
102
}
330
10289
100
AcDbXrecord
280
     1
102
SHADEPLOT
 70
     0
102
SHADEPLOTRESLEVEL
 70
     2
102
SHADEPLOTCUSTOMDPI
 70
   300
  0
PLOTSETTINGS
  5
1028A
102
{ACAD_XDICTIONARY
360
10417
102
}
102
{ACAD_REACTORS
330
10289
102
}
330
10289
100
AcDbPlotSettings
  1

  2
DWG To PDF.pc3
  4
ISO_full_bleed_A4_(297.00_x_210.00_MM)
  6

 40
0.7937499880790711
 41
0.7937499880790711
 42
0.79376220703125
 43
0.7937469482421875
 44
297.0
 45
210.0
 46
0.0
 47
0.0
 48
-4566.0490585155
 49
-3178.003751890116
140
-2270.049058515502
141
-1606.003751890112
142
1.0
143
7.772183285347201
 70
 11952
 72
     1
 73
     0
 74
     4
  7
a4.ctb
 75
     0
147
0.1286639755247778
148
4566.0490585155
149
3178.003751890116
1001
ACAD_PSEXT
1000
DWG To PDF.pc3
1000
DWG To PDF
1000
File
1000

1070
     0
  0
XRECORD
  5
F3BF
102
{ACAD_REACTORS
330
1A
102
}
330
1A
100
AcDbXrecord
280
     1
102
MATERIAL
148
0.0
149
0.0
149
0.0
 93
        0
 94
      127
282
     0
 72
     0
 77
     0
171
     0
175
     0
179
     0
273
     0
  0
XRECORD
  5
1C
102
{ACAD_REACTORS
330
1A
102
}
330
1A
100
AcDbXrecord
280
     1
270
     1
271
     1
  0
XRECORD
  5
1B
102
{ACAD_REACTORS
330
1A
102
}
330
1A
100
AcDbXrecord
280
     1
270
     1
271
     1
  0
XRECORD
  5
1F
102
{ACAD_REACTORS
330
1A
102
}
330
1A
100
AcDbXrecord
280
     1
270
     1
271
     1
  0
XRECORD
  5
1E
102
{ACAD_REACTORS
330
1A
102
}
330
1A
100
AcDbXrecord
280
     1
270
     1
271
     1
  0
XRECORD
  5
20
102
{ACAD_REACTORS
330
1A
102
}
330
1A
100
AcDbXrecord
280
     1
270
     1
271
     1
  0
XRECORD
  5
1D
102
{ACAD_REACTORS
330
1A
102
}
330
1A
100
AcDbXrecord
280
     1
270
     1
271
     1
  0
XRECORD
  5
F3BE
102
{ACAD_REACTORS
330
12
102
}
330
12
100
AcDbXrecord
280
     1
102
MATERIAL
148
0.0
149
0.0
149
0.0
 93
        0
 94
      127
282
     0
 72
     0
 77
     0
171
     0
175
     0
179
     0
273
     0
  0
XRECORD
  5
14
102
{ACAD_REACTORS
330
12
102
}
330
12
100
AcDbXrecord
280
     1
270
     1
271
     1
  0
XRECORD
  5
13
102
{ACAD_REACTORS
330
12
102
}
330
12
100
AcDbXrecord
280
     1
270
     1
271
     1
  0
XRECORD
  5
17
102
{ACAD_REACTORS
330
12
102
}
330
12
100
AcDbXrecord
280
     1
270
     1
271
     1
  0
XRECORD
  5
16
102
{ACAD_REACTORS
330
12
102
}
330
12
100
AcDbXrecord
280
     1
270
     1
271
     1
  0
XRECORD
  5
18
102
{ACAD_REACTORS
330
12
102
}
330
12
100
AcDbXrecord
280
     1
270
     1
271
     1
  0
XRECORD
  5
15
102
{ACAD_REACTORS
330
12
102
}
330
12
100
AcDbXrecord
280
     1
270
     1
271
     1
  0
XRECORD
  5
F3C0
102
{ACAD_REACTORS
330
22
102
}
330
22
100
AcDbXrecord
280
     1
102
MATERIAL
148
0.0
149
0.0
149
0.0
 93
        0
 94
      127
282
     0
 72
     0
 77
     0
171
     0
175
     0
179
     0
273
     0
  0
XRECORD
  5
24
102
{ACAD_REACTORS
330
22
102
}
330
22
100
AcDbXrecord
280
     1
270
     1
271
     1
  0
XRECORD
  5
23
102
{ACAD_REACTORS
330
22
102
}
330
22
100
AcDbXrecord
280
     1
270
     1
271
     1
  0
XRECORD
  5
27
102
{ACAD_REACTORS
330
22
102
}
330
22
100
AcDbXrecord
280
     1
270
     1
271
     1
  0
XRECORD
  5
26
102
{ACAD_REACTORS
330
22
102
}
330
22
100
AcDbXrecord
280
     1
270
     1
271
     1
  0
XRECORD
  5
28
102
{ACAD_REACTORS
330
22
102
}
330
22
100
AcDbXrecord
280
     1
270
     1
271
     1
  0
XRECORD
  5
25
102
{ACAD_REACTORS
330
22
102
}
330
22
100
AcDbXrecord
280
     1
270
     1
271
     1
  0
CELLSTYLEMAP
  5
103DA
102
{ACAD_REACTORS
330
104
102
}
330
104
100
AcDbCellStyleMap
 90
        3
300
CELLSTYLE
  1
TABLEFORMAT_BEGIN
 90
        5
170
     1
 91
        0
 92
    32768
 62
   257
 93
        1
300
CONTENTFORMAT
  1
CONTENTFORMAT_BEGIN
 90
        0
 91
        0
 92
      512
 93
        0
300

 40
0.0
140
1.0
 94
        5
 62
     0
340
5D
144
6.0
309
CONTENTFORMAT_END
171
     1
301
MARGIN
  1
CELLMARGIN_BEGIN
 40
1.5
 40
1.5
 40
1.5
 40
1.5
 40
0.18
 40
0.18
309
CELLMARGIN_END
 94
        6
 95
        1
302
GRIDFORMAT
  1
GRIDFORMAT_BEGIN
 90
        0
 91
        1
 62
     0
 92
       -2
340
0
 93
        0
 40
1.125
309
GRIDFORMAT_END
 95
        2
302
GRIDFORMAT
  1
GRIDFORMAT_BEGIN
 90
        0
 91
        1
 62
     0
 92
       -2
340
0
 93
        0
 40
1.125
309
GRIDFORMAT_END
 95
        4
302
GRIDFORMAT
  1
GRIDFORMAT_BEGIN
 90
        0
 91
        1
 62
     0
 92
       -2
340
0
 93
        0
 40
1.125
309
GRIDFORMAT_END
 95
        8
302
GRIDFORMAT
  1
GRIDFORMAT_BEGIN
 90
        0
 91
        1
 62
     0
 92
       -2
340
0
 93
        0
 40
1.125
309
GRIDFORMAT_END
 95
       16
302
GRIDFORMAT
  1
GRIDFORMAT_BEGIN
 90
        0
 91
        1
 62
     0
 92
       -2
340
0
 93
        0
 40
1.125
309
GRIDFORMAT_END
 95
       32
302
GRIDFORMAT
  1
GRIDFORMAT_BEGIN
 90
        0
 91
        1
 62
     0
 92
       -2
340
0
 93
        0
 40
1.125
309
GRIDFORMAT_END
309
TABLEFORMAT_END
  1
CELLSTYLE_BEGIN
 90
        1
 91
        1
300
_TITLE
309
CELLSTYLE_END
300
CELLSTYLE
  1
TABLEFORMAT_BEGIN
 90
        5
170
     1
 91
        0
 92
        0
 62
   257
 93
        1
300
CONTENTFORMAT
  1
CONTENTFORMAT_BEGIN
 90
        0
 91
        0
 92
      512
 93
        0
300

 40
0.0
140
1.0
 94
        5
 62
     0
340
5D
144
4.5
309
CONTENTFORMAT_END
171
     1
301
MARGIN
  1
CELLMARGIN_BEGIN
 40
1.5
 40
1.5
 40
1.5
 40
1.5
 40
0.18
 40
0.18
309
CELLMARGIN_END
 94
        6
 95
        1
302
GRIDFORMAT
  1
GRIDFORMAT_BEGIN
 90
        0
 91
        1
 62
     0
 92
       -2
340
0
 93
        0
 40
1.125
309
GRIDFORMAT_END
 95
        2
302
GRIDFORMAT
  1
GRIDFORMAT_BEGIN
 90
        0
 91
        1
 62
     0
 92
       -2
340
0
 93
        0
 40
1.125
309
GRIDFORMAT_END
 95
        4
302
GRIDFORMAT
  1
GRIDFORMAT_BEGIN
 90
        0
 91
        1
 62
     0
 92
       -2
340
0
 93
        0
 40
1.125
309
GRIDFORMAT_END
 95
        8
302
GRIDFORMAT
  1
GRIDFORMAT_BEGIN
 90
        0
 91
        1
 62
     0
 92
       -2
340
0
 93
        0
 40
1.125
309
GRIDFORMAT_END
 95
       16
302
GRIDFORMAT
  1
GRIDFORMAT_BEGIN
 90
        0
 91
        1
 62
     0
 92
       -2
340
0
 93
        0
 40
1.125
309
GRIDFORMAT_END
 95
       32
302
GRIDFORMAT
  1
GRIDFORMAT_BEGIN
 90
        0
 91
        1
 62
     0
 92
       -2
340
0
 93
        0
 40
1.125
309
GRIDFORMAT_END
309
TABLEFORMAT_END
  1
CELLSTYLE_BEGIN
 90
        2
 91
        1
300
_HEADER
309
CELLSTYLE_END
300
CELLSTYLE
  1
TABLEFORMAT_BEGIN
 90
        5
170
     1
 91
        0
 92
        0
 62
   257
 93
        1
300
CONTENTFORMAT
  1
CONTENTFORMAT_BEGIN
 90
        0
 91
        0
 92
      512
 93
        0
300

 40
0.0
140
1.0
 94
        2
 62
     0
340
5D
144
4.5
309
CONTENTFORMAT_END
171
     1
301
MARGIN
  1
CELLMARGIN_BEGIN
 40
1.5
 40
1.5
 40
1.5
 40
1.5
 40
0.18
 40
0.18
309
CELLMARGIN_END
 94
        6
 95
        1
302
GRIDFORMAT
  1
GRIDFORMAT_BEGIN
 90
        0
 91
        1
 62
     0
 92
       -2
340
0
 93
        0
 40
1.125
309
GRIDFORMAT_END
 95
        2
302
GRIDFORMAT
  1
GRIDFORMAT_BEGIN
 90
        0
 91
        1
 62
     0
 92
       -2
340
0
 93
        0
 40
1.125
309
GRIDFORMAT_END
 95
        4
302
GRIDFORMAT
  1
GRIDFORMAT_BEGIN
 90
        0
 91
        1
 62
     0
 92
       -2
340
0
 93
        0
 40
1.125
309
GRIDFORMAT_END
 95
        8
302
GRIDFORMAT
  1
GRIDFORMAT_BEGIN
 90
        0
 91
        1
 62
     0
 92
       -2
340
0
 93
        0
 40
1.125
309
GRIDFORMAT_END
 95
       16
302
GRIDFORMAT
  1
GRIDFORMAT_BEGIN
 90
        0
 91
        1
 62
     0
 92
       -2
340
0
 93
        0
 40
1.125
309
GRIDFORMAT_END
 95
       32
302
GRIDFORMAT
  1
GRIDFORMAT_BEGIN
 90
        0
 91
        1
 62
     0
 92
       -2
340
0
 93
        0
 40
1.125
309
GRIDFORMAT_END
309
TABLEFORMAT_END
  1
CELLSTYLE_BEGIN
 90
        3
 91
        2
300
_DATA
309
CELLSTYLE_END
  0
XRECORD
  5
103FD
102
{ACAD_REACTORS
330
104
102
}
330
104
100
AcDbXrecord
280
     1
102
ACAD_ROUNDTRIP_PRE2007_TABLESTYLE
 90
      512
 91
        0
  1

 92
      512
 93
        0
  2

 94
      512
 95
        0
  3

  0
XRECORD
  5
103E8
102
{ACAD_REACTORS
330
103E7
102
}
330
103E7
100
AcDbXrecord
280
     1
102
RTVSPost2010Prop28
280
     1
102
RTVSPost2010PropOp28
 70
     1
102
RTVSPost2010Prop29
280
     1
102
RTVSPost2010PropOp29
 70
     1
102
RTVSPost2010Prop30
280
     0
102
RTVSPost2010PropOp30
 70
     1
102
RTVSPost2010Prop31
280
     0
102
RTVSPost2010PropOp31
 70
     1
102
RTVSPost2010Prop32
280
     0
102
RTVSPost2010PropOp32
 70
     1
102
RTVSPost2010Prop33
280
     0
102
RTVSPost2010PropOp33
 70
     1
102
RTVSPost2010Prop34
280
     0
102
RTVSPost2010PropOp34
 70
     1
102
RTVSPost2010Prop35
280
     0
102
RTVSPost2010PropOp35
 70
     1
102
RTVSPost2010Prop36
280
     0
102
RTVSPost2010PropOp36
 70
     1
102
RTVSPost2010Prop37
 90
       50
102
RTVSPost2010PropOp37
 70
     1
102
RTVSPost2010Prop38
140
0.0
102
RTVSPost2010PropOp38
 70
     1
102
RTVSPost2010Prop39
140
1.0
102
RTVSPost2010PropOp39
 70
     1
102
RTVSPost2010Prop40
 90
        0
102
RTVSPost2010PropOp40
 70
     1
102
RTVSPost2010Prop41ColorIndex
 90
       18
102
RTVSPost2010Prop41ColorRGB
 90
        0
102
RTVSPost2010PropOp41
 70
     1
102
RTVSPost2010Prop42
 90
       50
102
RTVSPost2010PropOp42
 70
     1
102
RTVSPost2010Prop43
 90
        3
102
RTVSPost2010PropOp43
 70
     1
102
RTVSPost2010Prop44ColorIndex
 90
        5
102
RTVSPost2010Prop44ColorRGB
 90
      255
102
RTVSPost2010PropOp44
 70
     1
102
RTVSPost2010Prop45
280
     0
102
RTVSPost2010PropOp45
 70
     1
102
RTVSPost2010Prop46
 90
       50
102
RTVSPost2010PropOp46
 70
     1
102
RTVSPost2010Prop47
 90
       50
102
RTVSPost2010PropOp47
 70
     1
102
RTVSPost2010Prop48
 90
       50
102
RTVSPost2010PropOp48
 70
     1
102
RTVSPost2010Prop49
280
     0
102
RTVSPost2010PropOp49
 70
     1
102
RTVSPost2010Prop50
 90
       50
102
RTVSPost2010PropOp50
 70
     1
102
RTVSPost2010Prop51ColorIndex
 90
      256
102
RTVSPost2010Prop51ColorRGB
 90
-16777216
102
RTVSPost2010PropOp51
 70
     0
102
RTVSPost2010Prop52
140
1.0
102
RTVSPost2010PropOp52
 70
     0
102
RTVSPost2010Prop53
 90
        2
102
RTVSPost2010PropOp53
 70
     1
102
RTVSPost2010Prop54
  1
strokes_ogs.tif
102
RTVSPost2010PropOp54
 70
     1
102
RTVSPost2010Prop55
280
     0
102
RTVSPost2010PropOp55
 70
     1
102
RTVSPost2010Prop56
140
1.0
102
RTVSPost2010PropOp56
 70
     1
102
RTVSPost2010Prop57
140
1.0
102
RTVSPost2010PropOp57
 70
     1
102
RTVSPropertyOp0
 70
     1
102
RTVSPropertyOp1
 70
     1
102
RTVSPropertyOp2
 70
     1
102
RTVSPropertyOp3
 70
     1
102
RTVSPropertyOp4
 70
     1
102
RTVSPropertyOp5
 70
     1
102
RTVSPropertyOp6
 70
     1
102
RTVSPropertyOp7
 70
     1
102
RTVSPropertyOp8
 70
     1
102
RTVSPropertyOp9
 70
     1
102
RTVSPropertyOp10
 70
     1
102
RTVSPropertyOp11
 70
     1
102
RTVSPropertyOp12
 70
     1
102
RTVSPropertyOp13
 70
     1
102
RTVSPropertyOp14
 70
     1
102
RTVSPropertyOp15
 70
     1
102
RTVSPropertyOp16
 70
     1
102
RTVSPropertyOp17
 70
     1
102
RTVSPropertyOp18
 70
     1
102
RTVSPropertyOp19
 70
     1
102
RTVSPropertyOp20
 70
     1
102
RTVSPropertyOp21
 70
     1
102
RTVSPropertyOp22
 70
     1
102
RTVSPropertyOp23
 70
     1
102
RTVSPropertyOp24
 70
     1
102
RTVSPropertyOp25
 70
     1
102
RTVSPropertyOp26
 70
     1
102
RTVSPropertyOp27
 70
     1
102
RTVSPropertyOp28
 70
     1
102
RTVSPropertyOp29
 70
     1
102
RTVSPropertyOp30
 70
     1
102
RTVSPropertyOp31
 70
     1
102
RTVSPropertyOp32
 70
     1
102
RTVSPropertyOp33
 70
     1
102
RTVSPropertyOp34
 70
     1
102
RTVSPropertyOp35
 70
     1
102
RTVSPropertyOp36
 70
     1
102
RTVSPropertyOp37
 70
     1
102
RTVSPropertyOp38
 70
     1
102
RTVSPropertyOp39
 70
     1
102
RTVSPropertyOp40
 70
     1
102
RTVSPropertyOp41
 70
     1
102
RTVSPropertyOp42
 70
     1
102
RTVSPropertyOp43
 70
     1
102
RTVSPropertyOp44
 70
     1
102
RTVSPropertyOp45
 70
     1
102
RTVSPropertyOp46
 70
     1
102
RTVSPropertyOp47
 70
     1
102
RTVSPropertyOp48
 70
     1
102
RTVSPropertyOp49
 70
     1
102
RTVSPropertyOp50
 70
     1
102
RTVSPropertyOp51
 70
     0
102
RTVSPropertyOp52
 70
     0
102
RTVSPropertyOp53
 70
     1
102
RTVSPropertyOp54
 70
     1
102
RTVSPropertyOp55
 70
     1
102
RTVSPropertyOp56
 70
     1
102
RTVSPropertyOp57
 70
     1
102
RTVSPropertyOp58
 70
     1
102
RTVSPropertyOp59
 70
     1
102
RTVSPropertyOp60
 70
     1
102
RTVSPropertyOp61
 70
     1
102
RTVSPropertyOp62
 70
     1
  0
XRECORD
  5
103EC
102
{ACAD_REACTORS
330
103EB
102
}
330
103EB
100
AcDbXrecord
280
     1
102
RTVSPost2010Prop28
280
     0
102
RTVSPost2010PropOp28
 70
     1
102
RTVSPost2010Prop29
280
     1
102
RTVSPost2010PropOp29
 70
     1
102
RTVSPost2010Prop30
280
     1
102
RTVSPost2010PropOp30
 70
     1
102
RTVSPost2010Prop31
280
     0
102
RTVSPost2010PropOp31
 70
     1
102
RTVSPost2010Prop32
280
     0
102
RTVSPost2010PropOp32
 70
     1
102
RTVSPost2010Prop33
280
     0
102
RTVSPost2010PropOp33
 70
     1
102
RTVSPost2010Prop34
280
     0
102
RTVSPost2010PropOp34
 70
     1
102
RTVSPost2010Prop35
280
     0
102
RTVSPost2010PropOp35
 70
     1
102
RTVSPost2010Prop36
280
     0
102
RTVSPost2010PropOp36
 70
     1
102
RTVSPost2010Prop37
 90
       50
102
RTVSPost2010PropOp37
 70
     1
102
RTVSPost2010Prop38
140
0.0
102
RTVSPost2010PropOp38
 70
     1
102
RTVSPost2010Prop39
140
1.0
102
RTVSPost2010PropOp39
 70
     1
102
RTVSPost2010Prop40
 90
        0
102
RTVSPost2010PropOp40
 70
     1
102
RTVSPost2010Prop41ColorIndex
 90
       18
102
RTVSPost2010Prop41ColorRGB
 90
        0
102
RTVSPost2010PropOp41
 70
     1
102
RTVSPost2010Prop42
 90
       50
102
RTVSPost2010PropOp42
 70
     1
102
RTVSPost2010Prop43
 90
        3
102
RTVSPost2010PropOp43
 70
     1
102
RTVSPost2010Prop44ColorIndex
 90
        5
102
RTVSPost2010Prop44ColorRGB
 90
      255
102
RTVSPost2010PropOp44
 70
     1
102
RTVSPost2010Prop45
280
     0
102
RTVSPost2010PropOp45
 70
     1
102
RTVSPost2010Prop46
 90
       50
102
RTVSPost2010PropOp46
 70
     1
102
RTVSPost2010Prop47
 90
       50
102
RTVSPost2010PropOp47
 70
     1
102
RTVSPost2010Prop48
 90
       50
102
RTVSPost2010PropOp48
 70
     1
102
RTVSPost2010Prop49
280
     0
102
RTVSPost2010PropOp49
 70
     1
102
RTVSPost2010Prop50
 90
       50
102
RTVSPost2010PropOp50
 70
     1
102
RTVSPost2010Prop51ColorIndex
 90
      256
102
RTVSPost2010Prop51ColorRGB
 90
-16777216
102
RTVSPost2010PropOp51
 70
     0
102
RTVSPost2010Prop52
140
1.0
102
RTVSPost2010PropOp52
 70
     0
102
RTVSPost2010Prop53
 90
        2
102
RTVSPost2010PropOp53
 70
     1
102
RTVSPost2010Prop54
  1
strokes_ogs.tif
102
RTVSPost2010PropOp54
 70
     1
102
RTVSPost2010Prop55
280
     0
102
RTVSPost2010PropOp55
 70
     1
102
RTVSPost2010Prop56
140
1.0
102
RTVSPost2010PropOp56
 70
     1
102
RTVSPost2010Prop57
140
1.0
102
RTVSPost2010PropOp57
 70
     1
102
RTVSPropertyOp0
 70
     1
102
RTVSPropertyOp1
 70
     1
102
RTVSPropertyOp2
 70
     1
102
RTVSPropertyOp3
 70
     1
102
RTVSPropertyOp4
 70
     1
102
RTVSPropertyOp5
 70
     1
102
RTVSPropertyOp6
 70
     1
102
RTVSPropertyOp7
 70
     1
102
RTVSPropertyOp8
 70
     1
102
RTVSPropertyOp9
 70
     1
102
RTVSPropertyOp10
 70
     1
102
RTVSPropertyOp11
 70
     1
102
RTVSPropertyOp12
 70
     1
102
RTVSPropertyOp13
 70
     1
102
RTVSPropertyOp14
 70
     1
102
RTVSPropertyOp15
 70
     1
102
RTVSPropertyOp16
 70
     1
102
RTVSPropertyOp17
 70
     1
102
RTVSPropertyOp18
 70
     1
102
RTVSPropertyOp19
 70
     1
102
RTVSPropertyOp20
 70
     1
102
RTVSPropertyOp21
 70
     1
102
RTVSPropertyOp22
 70
     1
102
RTVSPropertyOp23
 70
     1
102
RTVSPropertyOp24
 70
     1
102
RTVSPropertyOp25
 70
     1
102
RTVSPropertyOp26
 70
     1
102
RTVSPropertyOp27
 70
     1
102
RTVSPropertyOp28
 70
     1
102
RTVSPropertyOp29
 70
     1
102
RTVSPropertyOp30
 70
     1
102
RTVSPropertyOp31
 70
     1
102
RTVSPropertyOp32
 70
     1
102
RTVSPropertyOp33
 70
     1
102
RTVSPropertyOp34
 70
     1
102
RTVSPropertyOp35
 70
     1
102
RTVSPropertyOp36
 70
     1
102
RTVSPropertyOp37
 70
     1
102
RTVSPropertyOp38
 70
     1
102
RTVSPropertyOp39
 70
     1
102
RTVSPropertyOp40
 70
     1
102
RTVSPropertyOp41
 70
     1
102
RTVSPropertyOp42
 70
     1
102
RTVSPropertyOp43
 70
     1
102
RTVSPropertyOp44
 70
     1
102
RTVSPropertyOp45
 70
     1
102
RTVSPropertyOp46
 70
     1
102
RTVSPropertyOp47
 70
     1
102
RTVSPropertyOp48
 70
     1
102
RTVSPropertyOp49
 70
     1
102
RTVSPropertyOp50
 70
     1
102
RTVSPropertyOp51
 70
     0
102
RTVSPropertyOp52
 70
     0
102
RTVSPropertyOp53
 70
     1
102
RTVSPropertyOp54
 70
     1
102
RTVSPropertyOp55
 70
     1
102
RTVSPropertyOp56
 70
     1
102
RTVSPropertyOp57
 70
     1
102
RTVSPropertyOp58
 70
     1
102
RTVSPropertyOp59
 70
     1
102
RTVSPropertyOp60
 70
     1
102
RTVSPropertyOp61
 70
     1
102
RTVSPropertyOp62
 70
     1
  0
XRECORD
  5
103EA
102
{ACAD_REACTORS
330
103E9
102
}
330
103E9
100
AcDbXrecord
280
     1
102
RTVSPost2010Prop28
280
     0
102
RTVSPost2010PropOp28
 70
     1
102
RTVSPost2010Prop29
280
     1
102
RTVSPost2010PropOp29
 70
     1
102
RTVSPost2010Prop30
280
     1
102
RTVSPost2010PropOp30
 70
     1
102
RTVSPost2010Prop31
280
     0
102
RTVSPost2010PropOp31
 70
     1
102
RTVSPost2010Prop32
280
     0
102
RTVSPost2010PropOp32
 70
     1
102
RTVSPost2010Prop33
280
     0
102
RTVSPost2010PropOp33
 70
     1
102
RTVSPost2010Prop34
280
     0
102
RTVSPost2010PropOp34
 70
     1
102
RTVSPost2010Prop35
280
     0
102
RTVSPost2010PropOp35
 70
     1
102
RTVSPost2010Prop36
280
     0
102
RTVSPost2010PropOp36
 70
     1
102
RTVSPost2010Prop37
 90
       50
102
RTVSPost2010PropOp37
 70
     1
102
RTVSPost2010Prop38
140
0.0
102
RTVSPost2010PropOp38
 70
     1
102
RTVSPost2010Prop39
140
1.0
102
RTVSPost2010PropOp39
 70
     1
102
RTVSPost2010Prop40
 90
        0
102
RTVSPost2010PropOp40
 70
     1
102
RTVSPost2010Prop41ColorIndex
 90
       18
102
RTVSPost2010Prop41ColorRGB
 90
        0
102
RTVSPost2010PropOp41
 70
     1
102
RTVSPost2010Prop42
 90
       50
102
RTVSPost2010PropOp42
 70
     1
102
RTVSPost2010Prop43
 90
        3
102
RTVSPost2010PropOp43
 70
     1
102
RTVSPost2010Prop44ColorIndex
 90
        5
102
RTVSPost2010Prop44ColorRGB
 90
      255
102
RTVSPost2010PropOp44
 70
     1
102
RTVSPost2010Prop45
280
     0
102
RTVSPost2010PropOp45
 70
     1
102
RTVSPost2010Prop46
 90
       50
102
RTVSPost2010PropOp46
 70
     1
102
RTVSPost2010Prop47
 90
       50
102
RTVSPost2010PropOp47
 70
     1
102
RTVSPost2010Prop48
 90
       50
102
RTVSPost2010PropOp48
 70
     1
102
RTVSPost2010Prop49
280
     0
102
RTVSPost2010PropOp49
 70
     1
102
RTVSPost2010Prop50
 90
       50
102
RTVSPost2010PropOp50
 70
     1
102
RTVSPost2010Prop51ColorIndex
 90
      256
102
RTVSPost2010Prop51ColorRGB
 90
-16777216
102
RTVSPost2010PropOp51
 70
     0
102
RTVSPost2010Prop52
140
1.0
102
RTVSPost2010PropOp52
 70
     0
102
RTVSPost2010Prop53
 90
        2
102
RTVSPost2010PropOp53
 70
     1
102
RTVSPost2010Prop54
  1
strokes_ogs.tif
102
RTVSPost2010PropOp54
 70
     1
102
RTVSPost2010Prop55
280
     0
102
RTVSPost2010PropOp55
 70
     1
102
RTVSPost2010Prop56
140
1.0
102
RTVSPost2010PropOp56
 70
     1
102
RTVSPost2010Prop57
140
1.0
102
RTVSPost2010PropOp57
 70
     1
102
RTVSPropertyOp0
 70
     1
102
RTVSPropertyOp1
 70
     1
102
RTVSPropertyOp2
 70
     1
102
RTVSPropertyOp3
 70
     1
102
RTVSPropertyOp4
 70
     1
102
RTVSPropertyOp5
 70
     1
102
RTVSPropertyOp6
 70
     1
102
RTVSPropertyOp7
 70
     1
102
RTVSPropertyOp8
 70
     1
102
RTVSPropertyOp9
 70
     1
102
RTVSPropertyOp10
 70
     1
102
RTVSPropertyOp11
 70
     1
102
RTVSPropertyOp12
 70
     1
102
RTVSPropertyOp13
 70
     1
102
RTVSPropertyOp14
 70
     1
102
RTVSPropertyOp15
 70
     1
102
RTVSPropertyOp16
 70
     1
102
RTVSPropertyOp17
 70
     1
102
RTVSPropertyOp18
 70
     1
102
RTVSPropertyOp19
 70
     1
102
RTVSPropertyOp20
 70
     1
102
RTVSPropertyOp21
 70
     1
102
RTVSPropertyOp22
 70
     1
102
RTVSPropertyOp23
 70
     1
102
RTVSPropertyOp24
 70
     1
102
RTVSPropertyOp25
 70
     1
102
RTVSPropertyOp26
 70
     1
102
RTVSPropertyOp27
 70
     1
102
RTVSPropertyOp28
 70
     1
102
RTVSPropertyOp29
 70
     1
102
RTVSPropertyOp30
 70
     1
102
RTVSPropertyOp31
 70
     1
102
RTVSPropertyOp32
 70
     1
102
RTVSPropertyOp33
 70
     1
102
RTVSPropertyOp34
 70
     1
102
RTVSPropertyOp35
 70
     1
102
RTVSPropertyOp36
 70
     1
102
RTVSPropertyOp37
 70
     1
102
RTVSPropertyOp38
 70
     1
102
RTVSPropertyOp39
 70
     1
102
RTVSPropertyOp40
 70
     1
102
RTVSPropertyOp41
 70
     1
102
RTVSPropertyOp42
 70
     1
102
RTVSPropertyOp43
 70
     1
102
RTVSPropertyOp44
 70
     1
102
RTVSPropertyOp45
 70
     1
102
RTVSPropertyOp46
 70
     1
102
RTVSPropertyOp47
 70
     1
102
RTVSPropertyOp48
 70
     1
102
RTVSPropertyOp49
 70
     1
102
RTVSPropertyOp50
 70
     1
102
RTVSPropertyOp51
 70
     0
102
RTVSPropertyOp52
 70
     0
102
RTVSPropertyOp53
 70
     1
102
RTVSPropertyOp54
 70
     1
102
RTVSPropertyOp55
 70
     1
102
RTVSPropertyOp56
 70
     1
102
RTVSPropertyOp57
 70
     1
102
RTVSPropertyOp58
 70
     1
102
RTVSPropertyOp59
 70
     1
102
RTVSPropertyOp60
 70
     1
102
RTVSPropertyOp61
 70
     1
102
RTVSPropertyOp62
 70
     1
  0
XRECORD
  5
103E6
102
{ACAD_REACTORS
330
103E5
102
}
330
103E5
100
AcDbXrecord
280
     1
102
RTVSPost2010Prop28
280
     0
102
RTVSPost2010PropOp28
 70
     1
102
RTVSPost2010Prop29
280
     1
102
RTVSPost2010PropOp29
 70
     1
102
RTVSPost2010Prop30
280
     1
102
RTVSPost2010PropOp30
 70
     1
102
RTVSPost2010Prop31
280
     0
102
RTVSPost2010PropOp31
 70
     1
102
RTVSPost2010Prop32
280
     0
102
RTVSPost2010PropOp32
 70
     1
102
RTVSPost2010Prop33
280
     0
102
RTVSPost2010PropOp33
 70
     1
102
RTVSPost2010Prop34
280
     0
102
RTVSPost2010PropOp34
 70
     1
102
RTVSPost2010Prop35
280
     0
102
RTVSPost2010PropOp35
 70
     1
102
RTVSPost2010Prop36
280
     0
102
RTVSPost2010PropOp36
 70
     1
102
RTVSPost2010Prop37
 90
       50
102
RTVSPost2010PropOp37
 70
     1
102
RTVSPost2010Prop38
140
0.0
102
RTVSPost2010PropOp38
 70
     1
102
RTVSPost2010Prop39
140
1.0
102
RTVSPost2010PropOp39
 70
     1
102
RTVSPost2010Prop40
 90
        0
102
RTVSPost2010PropOp40
 70
     1
102
RTVSPost2010Prop41ColorIndex
 90
       18
102
RTVSPost2010Prop41ColorRGB
 90
        0
102
RTVSPost2010PropOp41
 70
     1
102
RTVSPost2010Prop42
 90
       50
102
RTVSPost2010PropOp42
 70
     1
102
RTVSPost2010Prop43
 90
        3
102
RTVSPost2010PropOp43
 70
     1
102
RTVSPost2010Prop44ColorIndex
 90
        5
102
RTVSPost2010Prop44ColorRGB
 90
      255
102
RTVSPost2010PropOp44
 70
     1
102
RTVSPost2010Prop45
280
     0
102
RTVSPost2010PropOp45
 70
     1
102
RTVSPost2010Prop46
 90
       50
102
RTVSPost2010PropOp46
 70
     1
102
RTVSPost2010Prop47
 90
       50
102
RTVSPost2010PropOp47
 70
     1
102
RTVSPost2010Prop48
 90
       50
102
RTVSPost2010PropOp48
 70
     1
102
RTVSPost2010Prop49
280
     0
102
RTVSPost2010PropOp49
 70
     1
102
RTVSPost2010Prop50
 90
       50
102
RTVSPost2010PropOp50
 70
     1
102
RTVSPost2010Prop51ColorIndex
 90
      256
102
RTVSPost2010Prop51ColorRGB
 90
-16777216
102
RTVSPost2010PropOp51
 70
     0
102
RTVSPost2010Prop52
140
1.0
102
RTVSPost2010PropOp52
 70
     0
102
RTVSPost2010Prop53
 90
        2
102
RTVSPost2010PropOp53
 70
     1
102
RTVSPost2010Prop54
  1
strokes_ogs.tif
102
RTVSPost2010PropOp54
 70
     1
102
RTVSPost2010Prop55
280
     0
102
RTVSPost2010PropOp55
 70
     1
102
RTVSPost2010Prop56
140
1.0
102
RTVSPost2010PropOp56
 70
     1
102
RTVSPost2010Prop57
140
1.0
102
RTVSPost2010PropOp57
 70
     1
102
RTVSPropertyOp0
 70
     1
102
RTVSPropertyOp1
 70
     1
102
RTVSPropertyOp2
 70
     1
102
RTVSPropertyOp3
 70
     1
102
RTVSPropertyOp4
 70
     1
102
RTVSPropertyOp5
 70
     1
102
RTVSPropertyOp6
 70
     1
102
RTVSPropertyOp7
 70
     1
102
RTVSPropertyOp8
 70
     1
102
RTVSPropertyOp9
 70
     1
102
RTVSPropertyOp10
 70
     1
102
RTVSPropertyOp11
 70
     1
102
RTVSPropertyOp12
 70
     1
102
RTVSPropertyOp13
 70
     1
102
RTVSPropertyOp14
 70
     1
102
RTVSPropertyOp15
 70
     1
102
RTVSPropertyOp16
 70
     1
102
RTVSPropertyOp17
 70
     1
102
RTVSPropertyOp18
 70
     1
102
RTVSPropertyOp19
 70
     1
102
RTVSPropertyOp20
 70
     1
102
RTVSPropertyOp21
 70
     1
102
RTVSPropertyOp22
 70
     1
102
RTVSPropertyOp23
 70
     1
102
RTVSPropertyOp24
 70
     1
102
RTVSPropertyOp25
 70
     1
102
RTVSPropertyOp26
 70
     1
102
RTVSPropertyOp27
 70
     1
102
RTVSPropertyOp28
 70
     1
102
RTVSPropertyOp29
 70
     1
102
RTVSPropertyOp30
 70
     1
102
RTVSPropertyOp31
 70
     1
102
RTVSPropertyOp32
 70
     1
102
RTVSPropertyOp33
 70
     1
102
RTVSPropertyOp34
 70
     1
102
RTVSPropertyOp35
 70
     1
102
RTVSPropertyOp36
 70
     1
102
RTVSPropertyOp37
 70
     1
102
RTVSPropertyOp38
 70
     1
102
RTVSPropertyOp39
 70
     1
102
RTVSPropertyOp40
 70
     1
102
RTVSPropertyOp41
 70
     1
102
RTVSPropertyOp42
 70
     1
102
RTVSPropertyOp43
 70
     1
102
RTVSPropertyOp44
 70
     1
102
RTVSPropertyOp45
 70
     1
102
RTVSPropertyOp46
 70
     1
102
RTVSPropertyOp47
 70
     1
102
RTVSPropertyOp48
 70
     1
102
RTVSPropertyOp49
 70
     1
102
RTVSPropertyOp50
 70
     1
102
RTVSPropertyOp51
 70
     0
102
RTVSPropertyOp52
 70
     0
102
RTVSPropertyOp53
 70
     1
102
RTVSPropertyOp54
 70
     1
102
RTVSPropertyOp55
 70
     1
102
RTVSPropertyOp56
 70
     1
102
RTVSPropertyOp57
 70
     1
102
RTVSPropertyOp58
 70
     1
102
RTVSPropertyOp59
 70
     1
102
RTVSPropertyOp60
 70
     1
102
RTVSPropertyOp61
 70
     1
102
RTVSPropertyOp62
 70
     1
  0
XRECORD
  5
103F4
102
{ACAD_REACTORS
330
103F3
102
}
330
103F3
100
AcDbXrecord
280
     1
102
RTVSPost2010Prop28
280
     0
102
RTVSPost2010PropOp28
 70
     1
102
RTVSPost2010Prop29
280
     1
102
RTVSPost2010PropOp29
 70
     1
102
RTVSPost2010Prop30
280
     1
102
RTVSPost2010PropOp30
 70
     1
102
RTVSPost2010Prop31
280
     0
102
RTVSPost2010PropOp31
 70
     1
102
RTVSPost2010Prop32
280
     0
102
RTVSPost2010PropOp32
 70
     1
102
RTVSPost2010Prop33
280
     0
102
RTVSPost2010PropOp33
 70
     1
102
RTVSPost2010Prop34
280
     0
102
RTVSPost2010PropOp34
 70
     1
102
RTVSPost2010Prop35
280
     0
102
RTVSPost2010PropOp35
 70
     1
102
RTVSPost2010Prop36
280
     0
102
RTVSPost2010PropOp36
 70
     1
102
RTVSPost2010Prop37
 90
       50
102
RTVSPost2010PropOp37
 70
     1
102
RTVSPost2010Prop38
140
0.0
102
RTVSPost2010PropOp38
 70
     1
102
RTVSPost2010Prop39
140
1.0
102
RTVSPost2010PropOp39
 70
     1
102
RTVSPost2010Prop40
 90
        0
102
RTVSPost2010PropOp40
 70
     1
102
RTVSPost2010Prop41ColorIndex
 90
       18
102
RTVSPost2010Prop41ColorRGB
 90
        0
102
RTVSPost2010PropOp41
 70
     1
102
RTVSPost2010Prop42
 90
       50
102
RTVSPost2010PropOp42
 70
     1
102
RTVSPost2010Prop43
 90
        3
102
RTVSPost2010PropOp43
 70
     1
102
RTVSPost2010Prop44ColorIndex
 90
        5
102
RTVSPost2010Prop44ColorRGB
 90
      255
102
RTVSPost2010PropOp44
 70
     1
102
RTVSPost2010Prop45
280
     0
102
RTVSPost2010PropOp45
 70
     1
102
RTVSPost2010Prop46
 90
       50
102
RTVSPost2010PropOp46
 70
     1
102
RTVSPost2010Prop47
 90
       50
102
RTVSPost2010PropOp47
 70
     1
102
RTVSPost2010Prop48
 90
       50
102
RTVSPost2010PropOp48
 70
     1
102
RTVSPost2010Prop49
280
     0
102
RTVSPost2010PropOp49
 70
     1
102
RTVSPost2010Prop50
 90
       50
102
RTVSPost2010PropOp50
 70
     1
102
RTVSPost2010Prop51ColorIndex
 90
      256
102
RTVSPost2010Prop51ColorRGB
 90
-16777216
102
RTVSPost2010PropOp51
 70
     0
102
RTVSPost2010Prop52
140
1.0
102
RTVSPost2010PropOp52
 70
     0
102
RTVSPost2010Prop53
 90
        2
102
RTVSPost2010PropOp53
 70
     1
102
RTVSPost2010Prop54
  1
strokes_ogs.tif
102
RTVSPost2010PropOp54
 70
     1
102
RTVSPost2010Prop55
280
     0
102
RTVSPost2010PropOp55
 70
     1
102
RTVSPost2010Prop56
140
1.0
102
RTVSPost2010PropOp56
 70
     1
102
RTVSPost2010Prop57
140
1.0
102
RTVSPost2010PropOp57
 70
     1
102
RTVSPropertyOp0
 70
     1
102
RTVSPropertyOp1
 70
     1
102
RTVSPropertyOp2
 70
     1
102
RTVSPropertyOp3
 70
     1
102
RTVSPropertyOp4
 70
     1
102
RTVSPropertyOp5
 70
     1
102
RTVSPropertyOp6
 70
     1
102
RTVSPropertyOp7
 70
     1
102
RTVSPropertyOp8
 70
     1
102
RTVSPropertyOp9
 70
     1
102
RTVSPropertyOp10
 70
     1
102
RTVSPropertyOp11
 70
     1
102
RTVSPropertyOp12
 70
     1
102
RTVSPropertyOp13
 70
     1
102
RTVSPropertyOp14
 70
     1
102
RTVSPropertyOp15
 70
     1
102
RTVSPropertyOp16
 70
     1
102
RTVSPropertyOp17
 70
     1
102
RTVSPropertyOp18
 70
     1
102
RTVSPropertyOp19
 70
     1
102
RTVSPropertyOp20
 70
     1
102
RTVSPropertyOp21
 70
     1
102
RTVSPropertyOp22
 70
     1
102
RTVSPropertyOp23
 70
     1
102
RTVSPropertyOp24
 70
     1
102
RTVSPropertyOp25
 70
     1
102
RTVSPropertyOp26
 70
     1
102
RTVSPropertyOp27
 70
     1
102
RTVSPropertyOp28
 70
     1
102
RTVSPropertyOp29
 70
     1
102
RTVSPropertyOp30
 70
     1
102
RTVSPropertyOp31
 70
     1
102
RTVSPropertyOp32
 70
     1
102
RTVSPropertyOp33
 70
     1
102
RTVSPropertyOp34
 70
     1
102
RTVSPropertyOp35
 70
     1
102
RTVSPropertyOp36
 70
     1
102
RTVSPropertyOp37
 70
     1
102
RTVSPropertyOp38
 70
     1
102
RTVSPropertyOp39
 70
     1
102
RTVSPropertyOp40
 70
     1
102
RTVSPropertyOp41
 70
     1
102
RTVSPropertyOp42
 70
     1
102
RTVSPropertyOp43
 70
     1
102
RTVSPropertyOp44
 70
     1
102
RTVSPropertyOp45
 70
     1
102
RTVSPropertyOp46
 70
     1
102
RTVSPropertyOp47
 70
     1
102
RTVSPropertyOp48
 70
     1
102
RTVSPropertyOp49
 70
     1
102
RTVSPropertyOp50
 70
     1
102
RTVSPropertyOp51
 70
     0
102
RTVSPropertyOp52
 70
     0
102
RTVSPropertyOp53
 70
     1
102
RTVSPropertyOp54
 70
     1
102
RTVSPropertyOp55
 70
     1
102
RTVSPropertyOp56
 70
     1
102
RTVSPropertyOp57
 70
     1
102
RTVSPropertyOp58
 70
     1
102
RTVSPropertyOp59
 70
     1
102
RTVSPropertyOp60
 70
     1
102
RTVSPropertyOp61
 70
     1
102
RTVSPropertyOp62
 70
     1
  0
XRECORD
  5
103FC
102
{ACAD_REACTORS
330
103FB
102
}
330
103FB
100
AcDbXrecord
280
     1
102
RTVSPost2010Prop28
280
     0
102
RTVSPost2010PropOp28
 70
     1
102
RTVSPost2010Prop29
280
     1
102
RTVSPost2010PropOp29
 70
     1
102
RTVSPost2010Prop30
280
     1
102
RTVSPost2010PropOp30
 70
     1
102
RTVSPost2010Prop31
280
     0
102
RTVSPost2010PropOp31
 70
     1
102
RTVSPost2010Prop32
280
     0
102
RTVSPost2010PropOp32
 70
     1
102
RTVSPost2010Prop33
280
     0
102
RTVSPost2010PropOp33
 70
     1
102
RTVSPost2010Prop34
280
     0
102
RTVSPost2010PropOp34
 70
     1
102
RTVSPost2010Prop35
280
     0
102
RTVSPost2010PropOp35
 70
     1
102
RTVSPost2010Prop36
280
     0
102
RTVSPost2010PropOp36
 70
     1
102
RTVSPost2010Prop37
 90
       50
102
RTVSPost2010PropOp37
 70
     1
102
RTVSPost2010Prop38
140
0.0
102
RTVSPost2010PropOp38
 70
     1
102
RTVSPost2010Prop39
140
1.0
102
RTVSPost2010PropOp39
 70
     1
102
RTVSPost2010Prop40
 90
        0
102
RTVSPost2010PropOp40
 70
     1
102
RTVSPost2010Prop41ColorIndex
 90
       18
102
RTVSPost2010Prop41ColorRGB
 90
        0
102
RTVSPost2010PropOp41
 70
     1
102
RTVSPost2010Prop42
 90
       50
102
RTVSPost2010PropOp42
 70
     1
102
RTVSPost2010Prop43
 90
        3
102
RTVSPost2010PropOp43
 70
     1
102
RTVSPost2010Prop44ColorIndex
 90
        5
102
RTVSPost2010Prop44ColorRGB
 90
      255
102
RTVSPost2010PropOp44
 70
     1
102
RTVSPost2010Prop45
280
     0
102
RTVSPost2010PropOp45
 70
     1
102
RTVSPost2010Prop46
 90
       50
102
RTVSPost2010PropOp46
 70
     1
102
RTVSPost2010Prop47
 90
       50
102
RTVSPost2010PropOp47
 70
     1
102
RTVSPost2010Prop48
 90
       50
102
RTVSPost2010PropOp48
 70
     1
102
RTVSPost2010Prop49
280
     0
102
RTVSPost2010PropOp49
 70
     1
102
RTVSPost2010Prop50
 90
       50
102
RTVSPost2010PropOp50
 70
     1
102
RTVSPost2010Prop51ColorIndex
 90
      256
102
RTVSPost2010Prop51ColorRGB
 90
-16777216
102
RTVSPost2010PropOp51
 70
     0
102
RTVSPost2010Prop52
140
1.0
102
RTVSPost2010PropOp52
 70
     0
102
RTVSPost2010Prop53
 90
        2
102
RTVSPost2010PropOp53
 70
     1
102
RTVSPost2010Prop54
  1
strokes_ogs.tif
102
RTVSPost2010PropOp54
 70
     1
102
RTVSPost2010Prop55
280
     0
102
RTVSPost2010PropOp55
 70
     1
102
RTVSPost2010Prop56
140
1.0
102
RTVSPost2010PropOp56
 70
     1
102
RTVSPost2010Prop57
140
1.0
102
RTVSPost2010PropOp57
 70
     1
102
RTVSPropertyOp0
 70
     1
102
RTVSPropertyOp1
 70
     1
102
RTVSPropertyOp2
 70
     1
102
RTVSPropertyOp3
 70
     1
102
RTVSPropertyOp4
 70
     1
102
RTVSPropertyOp5
 70
     1
102
RTVSPropertyOp6
 70
     1
102
RTVSPropertyOp7
 70
     1
102
RTVSPropertyOp8
 70
     1
102
RTVSPropertyOp9
 70
     1
102
RTVSPropertyOp10
 70
     1
102
RTVSPropertyOp11
 70
     1
102
RTVSPropertyOp12
 70
     1
102
RTVSPropertyOp13
 70
     1
102
RTVSPropertyOp14
 70
     1
102
RTVSPropertyOp15
 70
     1
102
RTVSPropertyOp16
 70
     1
102
RTVSPropertyOp17
 70
     1
102
RTVSPropertyOp18
 70
     1
102
RTVSPropertyOp19
 70
     1
102
RTVSPropertyOp20
 70
     1
102
RTVSPropertyOp21
 70
     1
102
RTVSPropertyOp22
 70
     1
102
RTVSPropertyOp23
 70
     1
102
RTVSPropertyOp24
 70
     1
102
RTVSPropertyOp25
 70
     1
102
RTVSPropertyOp26
 70
     1
102
RTVSPropertyOp27
 70
     1
102
RTVSPropertyOp28
 70
     1
102
RTVSPropertyOp29
 70
     1
102
RTVSPropertyOp30
 70
     1
102
RTVSPropertyOp31
 70
     1
102
RTVSPropertyOp32
 70
     1
102
RTVSPropertyOp33
 70
     1
102
RTVSPropertyOp34
 70
     1
102
RTVSPropertyOp35
 70
     1
102
RTVSPropertyOp36
 70
     1
102
RTVSPropertyOp37
 70
     1
102
RTVSPropertyOp38
 70
     1
102
RTVSPropertyOp39
 70
     1
102
RTVSPropertyOp40
 70
     1
102
RTVSPropertyOp41
 70
     1
102
RTVSPropertyOp42
 70
     1
102
RTVSPropertyOp43
 70
     1
102
RTVSPropertyOp44
 70
     1
102
RTVSPropertyOp45
 70
     1
102
RTVSPropertyOp46
 70
     1
102
RTVSPropertyOp47
 70
     1
102
RTVSPropertyOp48
 70
     1
102
RTVSPropertyOp49
 70
     1
102
RTVSPropertyOp50
 70
     1
102
RTVSPropertyOp51
 70
     0
102
RTVSPropertyOp52
 70
     0
102
RTVSPropertyOp53
 70
     1
102
RTVSPropertyOp54
 70
     1
102
RTVSPropertyOp55
 70
     1
102
RTVSPropertyOp56
 70
     1
102
RTVSPropertyOp57
 70
     1
102
RTVSPropertyOp58
 70
     1
102
RTVSPropertyOp59
 70
     1
102
RTVSPropertyOp60
 70
     1
102
RTVSPropertyOp61
 70
     1
102
RTVSPropertyOp62
 70
     1
  0
XRECORD
  5
103EE
102
{ACAD_REACTORS
330
103ED
102
}
330
103ED
100
AcDbXrecord
280
     1
102
RTVSPost2010Prop28
280
     0
102
RTVSPost2010PropOp28
 70
     1
102
RTVSPost2010Prop29
280
     1
102
RTVSPost2010PropOp29
 70
     1
102
RTVSPost2010Prop30
280
     1
102
RTVSPost2010PropOp30
 70
     1
102
RTVSPost2010Prop31
280
     0
102
RTVSPost2010PropOp31
 70
     1
102
RTVSPost2010Prop32
280
     0
102
RTVSPost2010PropOp32
 70
     1
102
RTVSPost2010Prop33
280
     0
102
RTVSPost2010PropOp33
 70
     1
102
RTVSPost2010Prop34
280
     0
102
RTVSPost2010PropOp34
 70
     1
102
RTVSPost2010Prop35
280
     0
102
RTVSPost2010PropOp35
 70
     1
102
RTVSPost2010Prop36
280
     0
102
RTVSPost2010PropOp36
 70
     1
102
RTVSPost2010Prop37
 90
       50
102
RTVSPost2010PropOp37
 70
     1
102
RTVSPost2010Prop38
140
0.0
102
RTVSPost2010PropOp38
 70
     1
102
RTVSPost2010Prop39
140
1.0
102
RTVSPost2010PropOp39
 70
     1
102
RTVSPost2010Prop40
 90
        0
102
RTVSPost2010PropOp40
 70
     1
102
RTVSPost2010Prop41ColorIndex
 90
       18
102
RTVSPost2010Prop41ColorRGB
 90
        0
102
RTVSPost2010PropOp41
 70
     1
102
RTVSPost2010Prop42
 90
       50
102
RTVSPost2010PropOp42
 70
     1
102
RTVSPost2010Prop43
 90
        3
102
RTVSPost2010PropOp43
 70
     1
102
RTVSPost2010Prop44ColorIndex
 90
        5
102
RTVSPost2010Prop44ColorRGB
 90
      255
102
RTVSPost2010PropOp44
 70
     1
102
RTVSPost2010Prop45
280
     0
102
RTVSPost2010PropOp45
 70
     1
102
RTVSPost2010Prop46
 90
       50
102
RTVSPost2010PropOp46
 70
     1
102
RTVSPost2010Prop47
 90
       50
102
RTVSPost2010PropOp47
 70
     1
102
RTVSPost2010Prop48
 90
       50
102
RTVSPost2010PropOp48
 70
     1
102
RTVSPost2010Prop49
280
     0
102
RTVSPost2010PropOp49
 70
     1
102
RTVSPost2010Prop50
 90
       50
102
RTVSPost2010PropOp50
 70
     1
102
RTVSPost2010Prop51ColorIndex
 90
      256
102
RTVSPost2010Prop51ColorRGB
 90
-16777216
102
RTVSPost2010PropOp51
 70
     0
102
RTVSPost2010Prop52
140
1.0
102
RTVSPost2010PropOp52
 70
     0
102
RTVSPost2010Prop53
 90
        2
102
RTVSPost2010PropOp53
 70
     1
102
RTVSPost2010Prop54
  1
strokes_ogs.tif
102
RTVSPost2010PropOp54
 70
     1
102
RTVSPost2010Prop55
280
     0
102
RTVSPost2010PropOp55
 70
     1
102
RTVSPost2010Prop56
140
1.0
102
RTVSPost2010PropOp56
 70
     1
102
RTVSPost2010Prop57
140
1.0
102
RTVSPost2010PropOp57
 70
     1
102
RTVSPropertyOp0
 70
     1
102
RTVSPropertyOp1
 70
     1
102
RTVSPropertyOp2
 70
     1
102
RTVSPropertyOp3
 70
     1
102
RTVSPropertyOp4
 70
     1
102
RTVSPropertyOp5
 70
     1
102
RTVSPropertyOp6
 70
     1
102
RTVSPropertyOp7
 70
     1
102
RTVSPropertyOp8
 70
     1
102
RTVSPropertyOp9
 70
     1
102
RTVSPropertyOp10
 70
     1
102
RTVSPropertyOp11
 70
     1
102
RTVSPropertyOp12
 70
     1
102
RTVSPropertyOp13
 70
     1
102
RTVSPropertyOp14
 70
     1
102
RTVSPropertyOp15
 70
     1
102
RTVSPropertyOp16
 70
     1
102
RTVSPropertyOp17
 70
     1
102
RTVSPropertyOp18
 70
     1
102
RTVSPropertyOp19
 70
     1
102
RTVSPropertyOp20
 70
     1
102
RTVSPropertyOp21
 70
     1
102
RTVSPropertyOp22
 70
     1
102
RTVSPropertyOp23
 70
     1
102
RTVSPropertyOp24
 70
     1
102
RTVSPropertyOp25
 70
     1
102
RTVSPropertyOp26
 70
     1
102
RTVSPropertyOp27
 70
     1
102
RTVSPropertyOp28
 70
     1
102
RTVSPropertyOp29
 70
     1
102
RTVSPropertyOp30
 70
     1
102
RTVSPropertyOp31
 70
     1
102
RTVSPropertyOp32
 70
     1
102
RTVSPropertyOp33
 70
     1
102
RTVSPropertyOp34
 70
     1
102
RTVSPropertyOp35
 70
     1
102
RTVSPropertyOp36
 70
     1
102
RTVSPropertyOp37
 70
     1
102
RTVSPropertyOp38
 70
     1
102
RTVSPropertyOp39
 70
     1
102
RTVSPropertyOp40
 70
     1
102
RTVSPropertyOp41
 70
     1
102
RTVSPropertyOp42
 70
     1
102
RTVSPropertyOp43
 70
     1
102
RTVSPropertyOp44
 70
     1
102
RTVSPropertyOp45
 70
     1
102
RTVSPropertyOp46
 70
     1
102
RTVSPropertyOp47
 70
     1
102
RTVSPropertyOp48
 70
     1
102
RTVSPropertyOp49
 70
     1
102
RTVSPropertyOp50
 70
     1
102
RTVSPropertyOp51
 70
     0
102
RTVSPropertyOp52
 70
     0
102
RTVSPropertyOp53
 70
     1
102
RTVSPropertyOp54
 70
     1
102
RTVSPropertyOp55
 70
     1
102
RTVSPropertyOp56
 70
     1
102
RTVSPropertyOp57
 70
     1
102
RTVSPropertyOp58
 70
     1
102
RTVSPropertyOp59
 70
     1
102
RTVSPropertyOp60
 70
     1
102
RTVSPropertyOp61
 70
     1
102
RTVSPropertyOp62
 70
     1
  0
XRECORD
  5
103F2
102
{ACAD_REACTORS
330
103F1
102
}
330
103F1
100
AcDbXrecord
280
     1
102
RTVSPost2010Prop28
280
     0
102
RTVSPost2010PropOp28
 70
     1
102
RTVSPost2010Prop29
280
     1
102
RTVSPost2010PropOp29
 70
     1
102
RTVSPost2010Prop30
280
     1
102
RTVSPost2010PropOp30
 70
     1
102
RTVSPost2010Prop31
280
     0
102
RTVSPost2010PropOp31
 70
     1
102
RTVSPost2010Prop32
280
     0
102
RTVSPost2010PropOp32
 70
     1
102
RTVSPost2010Prop33
280
     0
102
RTVSPost2010PropOp33
 70
     1
102
RTVSPost2010Prop34
280
     0
102
RTVSPost2010PropOp34
 70
     1
102
RTVSPost2010Prop35
280
     0
102
RTVSPost2010PropOp35
 70
     1
102
RTVSPost2010Prop36
280
     0
102
RTVSPost2010PropOp36
 70
     1
102
RTVSPost2010Prop37
 90
       50
102
RTVSPost2010PropOp37
 70
     1
102
RTVSPost2010Prop38
140
0.0
102
RTVSPost2010PropOp38
 70
     1
102
RTVSPost2010Prop39
140
1.0
102
RTVSPost2010PropOp39
 70
     1
102
RTVSPost2010Prop40
 90
        0
102
RTVSPost2010PropOp40
 70
     1
102
RTVSPost2010Prop41ColorIndex
 90
       18
102
RTVSPost2010Prop41ColorRGB
 90
        0
102
RTVSPost2010PropOp41
 70
     1
102
RTVSPost2010Prop42
 90
       50
102
RTVSPost2010PropOp42
 70
     1
102
RTVSPost2010Prop43
 90
        3
102
RTVSPost2010PropOp43
 70
     1
102
RTVSPost2010Prop44ColorIndex
 90
        5
102
RTVSPost2010Prop44ColorRGB
 90
      255
102
RTVSPost2010PropOp44
 70
     1
102
RTVSPost2010Prop45
280
     0
102
RTVSPost2010PropOp45
 70
     1
102
RTVSPost2010Prop46
 90
       50
102
RTVSPost2010PropOp46
 70
     1
102
RTVSPost2010Prop47
 90
       50
102
RTVSPost2010PropOp47
 70
     1
102
RTVSPost2010Prop48
 90
       50
102
RTVSPost2010PropOp48
 70
     1
102
RTVSPost2010Prop49
280
     0
102
RTVSPost2010PropOp49
 70
     1
102
RTVSPost2010Prop50
 90
       50
102
RTVSPost2010PropOp50
 70
     1
102
RTVSPost2010Prop51ColorIndex
 90
      256
102
RTVSPost2010Prop51ColorRGB
 90
-16777216
102
RTVSPost2010PropOp51
 70
     0
102
RTVSPost2010Prop52
140
1.0
102
RTVSPost2010PropOp52
 70
     0
102
RTVSPost2010Prop53
 90
        2
102
RTVSPost2010PropOp53
 70
     1
102
RTVSPost2010Prop54
  1
strokes_ogs.tif
102
RTVSPost2010PropOp54
 70
     1
102
RTVSPost2010Prop55
280
     0
102
RTVSPost2010PropOp55
 70
     1
102
RTVSPost2010Prop56
140
1.0
102
RTVSPost2010PropOp56
 70
     1
102
RTVSPost2010Prop57
140
1.0
102
RTVSPost2010PropOp57
 70
     1
102
RTVSPropertyOp0
 70
     1
102
RTVSPropertyOp1
 70
     1
102
RTVSPropertyOp2
 70
     1
102
RTVSPropertyOp3
 70
     1
102
RTVSPropertyOp4
 70
     1
102
RTVSPropertyOp5
 70
     1
102
RTVSPropertyOp6
 70
     1
102
RTVSPropertyOp7
 70
     1
102
RTVSPropertyOp8
 70
     1
102
RTVSPropertyOp9
 70
     1
102
RTVSPropertyOp10
 70
     1
102
RTVSPropertyOp11
 70
     1
102
RTVSPropertyOp12
 70
     1
102
RTVSPropertyOp13
 70
     1
102
RTVSPropertyOp14
 70
     1
102
RTVSPropertyOp15
 70
     1
102
RTVSPropertyOp16
 70
     1
102
RTVSPropertyOp17
 70
     1
102
RTVSPropertyOp18
 70
     1
102
RTVSPropertyOp19
 70
     1
102
RTVSPropertyOp20
 70
     1
102
RTVSPropertyOp21
 70
     1
102
RTVSPropertyOp22
 70
     1
102
RTVSPropertyOp23
 70
     1
102
RTVSPropertyOp24
 70
     1
102
RTVSPropertyOp25
 70
     1
102
RTVSPropertyOp26
 70
     1
102
RTVSPropertyOp27
 70
     1
102
RTVSPropertyOp28
 70
     1
102
RTVSPropertyOp29
 70
     1
102
RTVSPropertyOp30
 70
     1
102
RTVSPropertyOp31
 70
     1
102
RTVSPropertyOp32
 70
     1
102
RTVSPropertyOp33
 70
     1
102
RTVSPropertyOp34
 70
     1
102
RTVSPropertyOp35
 70
     1
102
RTVSPropertyOp36
 70
     1
102
RTVSPropertyOp37
 70
     1
102
RTVSPropertyOp38
 70
     1
102
RTVSPropertyOp39
 70
     1
102
RTVSPropertyOp40
 70
     1
102
RTVSPropertyOp41
 70
     1
102
RTVSPropertyOp42
 70
     1
102
RTVSPropertyOp43
 70
     1
102
RTVSPropertyOp44
 70
     1
102
RTVSPropertyOp45
 70
     1
102
RTVSPropertyOp46
 70
     1
102
RTVSPropertyOp47
 70
     1
102
RTVSPropertyOp48
 70
     1
102
RTVSPropertyOp49
 70
     1
102
RTVSPropertyOp50
 70
     1
102
RTVSPropertyOp51
 70
     0
102
RTVSPropertyOp52
 70
     0
102
RTVSPropertyOp53
 70
     1
102
RTVSPropertyOp54
 70
     1
102
RTVSPropertyOp55
 70
     1
102
RTVSPropertyOp56
 70
     1
102
RTVSPropertyOp57
 70
     1
102
RTVSPropertyOp58
 70
     1
102
RTVSPropertyOp59
 70
     1
102
RTVSPropertyOp60
 70
     1
102
RTVSPropertyOp61
 70
     1
102
RTVSPropertyOp62
 70
     1
  0
XRECORD
  5
10416
102
{ACAD_REACTORS
330
10415
102
}
330
10415
100
AcDbXrecord
280
     1
102
RTVSPost2010Prop28
280
     0
102
RTVSPost2010PropOp28
 70
     0
102
RTVSPost2010Prop29
280
     1
102
RTVSPost2010PropOp29
 70
     0
102
RTVSPost2010Prop30
280
     1
102
RTVSPost2010PropOp30
 70
     0
102
RTVSPost2010Prop31
280
     0
102
RTVSPost2010PropOp31
 70
     0
102
RTVSPost2010Prop32
280
     0
102
RTVSPost2010PropOp32
 70
     0
102
RTVSPost2010Prop33
280
     0
102
RTVSPost2010PropOp33
 70
     0
102
RTVSPost2010Prop34
280
     0
102
RTVSPost2010PropOp34
 70
     0
102
RTVSPost2010Prop35
280
     0
102
RTVSPost2010PropOp35
 70
     0
102
RTVSPost2010Prop36
280
     0
102
RTVSPost2010PropOp36
 70
     0
102
RTVSPost2010Prop37
 90
       50
102
RTVSPost2010PropOp37
 70
     0
102
RTVSPost2010Prop38
140
0.0
102
RTVSPost2010PropOp38
 70
     0
102
RTVSPost2010Prop39
140
1.0
102
RTVSPost2010PropOp39
 70
     0
102
RTVSPost2010Prop40
 90
        0
102
RTVSPost2010PropOp40
 70
     0
102
RTVSPost2010Prop41ColorIndex
 90
       18
102
RTVSPost2010Prop41ColorRGB
 90
        0
102
RTVSPost2010PropOp41
 70
     0
102
RTVSPost2010Prop42
 90
       50
102
RTVSPost2010PropOp42
 70
     0
102
RTVSPost2010Prop43
 90
        3
102
RTVSPost2010PropOp43
 70
     0
102
RTVSPost2010Prop44ColorIndex
 90
        5
102
RTVSPost2010Prop44ColorRGB
 90
      255
102
RTVSPost2010PropOp44
 70
     0
102
RTVSPost2010Prop45
280
     0
102
RTVSPost2010PropOp45
 70
     0
102
RTVSPost2010Prop46
 90
       50
102
RTVSPost2010PropOp46
 70
     0
102
RTVSPost2010Prop47
 90
       50
102
RTVSPost2010PropOp47
 70
     0
102
RTVSPost2010Prop48
 90
       50
102
RTVSPost2010PropOp48
 70
     0
102
RTVSPost2010Prop49
280
     0
102
RTVSPost2010PropOp49
 70
     0
102
RTVSPost2010Prop50
 90
       50
102
RTVSPost2010PropOp50
 70
     0
102
RTVSPost2010Prop51ColorIndex
 90
      256
102
RTVSPost2010Prop51ColorRGB
 90
-16777216
102
RTVSPost2010PropOp51
 70
     0
102
RTVSPost2010Prop52
140
1.0
102
RTVSPost2010PropOp52
 70
     0
102
RTVSPost2010Prop53
 90
        2
102
RTVSPost2010PropOp53
 70
     0
102
RTVSPost2010Prop54
  1
strokes_ogs.tif
102
RTVSPost2010PropOp54
 70
     0
102
RTVSPost2010Prop55
280
     0
102
RTVSPost2010PropOp55
 70
     0
102
RTVSPost2010Prop56
140
1.0
102
RTVSPost2010PropOp56
 70
     0
102
RTVSPost2010Prop57
140
1.0
102
RTVSPost2010PropOp57
 70
     0
102
RTVSPropertyOp0
 70
     0
102
RTVSPropertyOp1
 70
     0
102
RTVSPropertyOp2
 70
     0
102
RTVSPropertyOp3
 70
     0
102
RTVSPropertyOp4
 70
     0
102
RTVSPropertyOp5
 70
     0
102
RTVSPropertyOp6
 70
     0
102
RTVSPropertyOp7
 70
     0
102
RTVSPropertyOp8
 70
     0
102
RTVSPropertyOp9
 70
     0
102
RTVSPropertyOp10
 70
     0
102
RTVSPropertyOp11
 70
     0
102
RTVSPropertyOp12
 70
     0
102
RTVSPropertyOp13
 70
     0
102
RTVSPropertyOp14
 70
     2
102
RTVSPropertyOp15
 70
     0
102
RTVSPropertyOp16
 70
     0
102
RTVSPropertyOp17
 70
     0
102
RTVSPropertyOp18
 70
     0
102
RTVSPropertyOp19
 70
     0
102
RTVSPropertyOp20
 70
     0
102
RTVSPropertyOp21
 70
     0
102
RTVSPropertyOp22
 70
     0
102
RTVSPropertyOp23
 70
     0
102
RTVSPropertyOp24
 70
     0
102
RTVSPropertyOp25
 70
     0
102
RTVSPropertyOp26
 70
     0
102
RTVSPropertyOp27
 70
     0
102
RTVSPropertyOp28
 70
     0
102
RTVSPropertyOp29
 70
     0
102
RTVSPropertyOp30
 70
     0
102
RTVSPropertyOp31
 70
     0
102
RTVSPropertyOp32
 70
     0
102
RTVSPropertyOp33
 70
     0
102
RTVSPropertyOp34
 70
     0
102
RTVSPropertyOp35
 70
     0
102
RTVSPropertyOp36
 70
     0
102
RTVSPropertyOp37
 70
     0
102
RTVSPropertyOp38
 70
     0
102
RTVSPropertyOp39
 70
     0
102
RTVSPropertyOp40
 70
     0
102
RTVSPropertyOp41
 70
     0
102
RTVSPropertyOp42
 70
     0
102
RTVSPropertyOp43
 70
     0
102
RTVSPropertyOp44
 70
     0
102
RTVSPropertyOp45
 70
     0
102
RTVSPropertyOp46
 70
     0
102
RTVSPropertyOp47
 70
     0
102
RTVSPropertyOp48
 70
     0
102
RTVSPropertyOp49
 70
     0
102
RTVSPropertyOp50
 70
     0
102
RTVSPropertyOp51
 70
     0
102
RTVSPropertyOp52
 70
     0
102
RTVSPropertyOp53
 70
     0
102
RTVSPropertyOp54
 70
     0
102
RTVSPropertyOp55
 70
     0
102
RTVSPropertyOp56
 70
     0
102
RTVSPropertyOp57
 70
     0
102
RTVSPropertyOp58
 70
     0
102
RTVSPropertyOp59
 70
     0
102
RTVSPropertyOp60
 70
     0
102
RTVSPropertyOp61
 70
     0
102
RTVSPropertyOp62
 70
     0
  0
XRECORD
  5
103FA
102
{ACAD_REACTORS
330
103F9
102
}
330
103F9
100
AcDbXrecord
280
     1
102
RTVSPost2010Prop28
280
     0
102
RTVSPost2010PropOp28
 70
     1
102
RTVSPost2010Prop29
280
     1
102
RTVSPost2010PropOp29
 70
     1
102
RTVSPost2010Prop30
280
     1
102
RTVSPost2010PropOp30
 70
     1
102
RTVSPost2010Prop31
280
     0
102
RTVSPost2010PropOp31
 70
     1
102
RTVSPost2010Prop32
280
     0
102
RTVSPost2010PropOp32
 70
     1
102
RTVSPost2010Prop33
280
     0
102
RTVSPost2010PropOp33
 70
     1
102
RTVSPost2010Prop34
280
     0
102
RTVSPost2010PropOp34
 70
     1
102
RTVSPost2010Prop35
280
     0
102
RTVSPost2010PropOp35
 70
     1
102
RTVSPost2010Prop36
280
     0
102
RTVSPost2010PropOp36
 70
     1
102
RTVSPost2010Prop37
 90
       50
102
RTVSPost2010PropOp37
 70
     1
102
RTVSPost2010Prop38
140
0.0
102
RTVSPost2010PropOp38
 70
     1
102
RTVSPost2010Prop39
140
1.0
102
RTVSPost2010PropOp39
 70
     1
102
RTVSPost2010Prop40
 90
        0
102
RTVSPost2010PropOp40
 70
     1
102
RTVSPost2010Prop41ColorIndex
 90
       18
102
RTVSPost2010Prop41ColorRGB
 90
        0
102
RTVSPost2010PropOp41
 70
     1
102
RTVSPost2010Prop42
 90
       50
102
RTVSPost2010PropOp42
 70
     1
102
RTVSPost2010Prop43
 90
        3
102
RTVSPost2010PropOp43
 70
     1
102
RTVSPost2010Prop44ColorIndex
 90
        5
102
RTVSPost2010Prop44ColorRGB
 90
      255
102
RTVSPost2010PropOp44
 70
     1
102
RTVSPost2010Prop45
280
     0
102
RTVSPost2010PropOp45
 70
     1
102
RTVSPost2010Prop46
 90
       50
102
RTVSPost2010PropOp46
 70
     1
102
RTVSPost2010Prop47
 90
       50
102
RTVSPost2010PropOp47
 70
     1
102
RTVSPost2010Prop48
 90
       50
102
RTVSPost2010PropOp48
 70
     1
102
RTVSPost2010Prop49
280
     0
102
RTVSPost2010PropOp49
 70
     1
102
RTVSPost2010Prop50
 90
       50
102
RTVSPost2010PropOp50
 70
     1
102
RTVSPost2010Prop51ColorIndex
 90
      256
102
RTVSPost2010Prop51ColorRGB
 90
-16777216
102
RTVSPost2010PropOp51
 70
     0
102
RTVSPost2010Prop52
140
1.0
102
RTVSPost2010PropOp52
 70
     0
102
RTVSPost2010Prop53
 90
        2
102
RTVSPost2010PropOp53
 70
     1
102
RTVSPost2010Prop54
  1
strokes_ogs.tif
102
RTVSPost2010PropOp54
 70
     1
102
RTVSPost2010Prop55
280
     0
102
RTVSPost2010PropOp55
 70
     1
102
RTVSPost2010Prop56
140
1.0
102
RTVSPost2010PropOp56
 70
     1
102
RTVSPost2010Prop57
140
1.0
102
RTVSPost2010PropOp57
 70
     1
102
RTVSPropertyOp0
 70
     1
102
RTVSPropertyOp1
 70
     1
102
RTVSPropertyOp2
 70
     1
102
RTVSPropertyOp3
 70
     1
102
RTVSPropertyOp4
 70
     1
102
RTVSPropertyOp5
 70
     1
102
RTVSPropertyOp6
 70
     1
102
RTVSPropertyOp7
 70
     1
102
RTVSPropertyOp8
 70
     1
102
RTVSPropertyOp9
 70
     1
102
RTVSPropertyOp10
 70
     1
102
RTVSPropertyOp11
 70
     1
102
RTVSPropertyOp12
 70
     1
102
RTVSPropertyOp13
 70
     1
102
RTVSPropertyOp14
 70
     1
102
RTVSPropertyOp15
 70
     1
102
RTVSPropertyOp16
 70
     1
102
RTVSPropertyOp17
 70
     1
102
RTVSPropertyOp18
 70
     1
102
RTVSPropertyOp19
 70
     1
102
RTVSPropertyOp20
 70
     1
102
RTVSPropertyOp21
 70
     1
102
RTVSPropertyOp22
 70
     1
102
RTVSPropertyOp23
 70
     1
102
RTVSPropertyOp24
 70
     1
102
RTVSPropertyOp25
 70
     1
102
RTVSPropertyOp26
 70
     1
102
RTVSPropertyOp27
 70
     1
102
RTVSPropertyOp28
 70
     1
102
RTVSPropertyOp29
 70
     1
102
RTVSPropertyOp30
 70
     1
102
RTVSPropertyOp31
 70
     1
102
RTVSPropertyOp32
 70
     1
102
RTVSPropertyOp33
 70
     1
102
RTVSPropertyOp34
 70
     1
102
RTVSPropertyOp35
 70
     1
102
RTVSPropertyOp36
 70
     1
102
RTVSPropertyOp37
 70
     1
102
RTVSPropertyOp38
 70
     1
102
RTVSPropertyOp39
 70
     1
102
RTVSPropertyOp40
 70
     1
102
RTVSPropertyOp41
 70
     1
102
RTVSPropertyOp42
 70
     1
102
RTVSPropertyOp43
 70
     1
102
RTVSPropertyOp44
 70
     1
102
RTVSPropertyOp45
 70
     1
102
RTVSPropertyOp46
 70
     1
102
RTVSPropertyOp47
 70
     1
102
RTVSPropertyOp48
 70
     1
102
RTVSPropertyOp49
 70
     1
102
RTVSPropertyOp50
 70
     1
102
RTVSPropertyOp51
 70
     0
102
RTVSPropertyOp52
 70
     0
102
RTVSPropertyOp53
 70
     1
102
RTVSPropertyOp54
 70
     1
102
RTVSPropertyOp55
 70
     1
102
RTVSPropertyOp56
 70
     1
102
RTVSPropertyOp57
 70
     1
102
RTVSPropertyOp58
 70
     1
102
RTVSPropertyOp59
 70
     1
102
RTVSPropertyOp60
 70
     1
102
RTVSPropertyOp61
 70
     1
102
RTVSPropertyOp62
 70
     1
  0
XRECORD
  5
103DE
102
{ACAD_REACTORS
330
103DD
102
}
330
103DD
100
AcDbXrecord
280
     1
102
RTVSPost2010Prop28
280
     0
102
RTVSPost2010PropOp28
 70
     1
102
RTVSPost2010Prop29
280
     1
102
RTVSPost2010PropOp29
 70
     1
102
RTVSPost2010Prop30
280
     1
102
RTVSPost2010PropOp30
 70
     1
102
RTVSPost2010Prop31
280
     0
102
RTVSPost2010PropOp31
 70
     1
102
RTVSPost2010Prop32
280
     0
102
RTVSPost2010PropOp32
 70
     1
102
RTVSPost2010Prop33
280
     0
102
RTVSPost2010PropOp33
 70
     1
102
RTVSPost2010Prop34
280
     0
102
RTVSPost2010PropOp34
 70
     1
102
RTVSPost2010Prop35
280
     0
102
RTVSPost2010PropOp35
 70
     1
102
RTVSPost2010Prop36
280
     0
102
RTVSPost2010PropOp36
 70
     1
102
RTVSPost2010Prop37
 90
       50
102
RTVSPost2010PropOp37
 70
     1
102
RTVSPost2010Prop38
140
0.0
102
RTVSPost2010PropOp38
 70
     1
102
RTVSPost2010Prop39
140
1.0
102
RTVSPost2010PropOp39
 70
     1
102
RTVSPost2010Prop40
 90
        0
102
RTVSPost2010PropOp40
 70
     1
102
RTVSPost2010Prop41ColorIndex
 90
       18
102
RTVSPost2010Prop41ColorRGB
 90
        0
102
RTVSPost2010PropOp41
 70
     1
102
RTVSPost2010Prop42
 90
       50
102
RTVSPost2010PropOp42
 70
     1
102
RTVSPost2010Prop43
 90
        3
102
RTVSPost2010PropOp43
 70
     1
102
RTVSPost2010Prop44ColorIndex
 90
        5
102
RTVSPost2010Prop44ColorRGB
 90
      255
102
RTVSPost2010PropOp44
 70
     1
102
RTVSPost2010Prop45
280
     0
102
RTVSPost2010PropOp45
 70
     1
102
RTVSPost2010Prop46
 90
       50
102
RTVSPost2010PropOp46
 70
     1
102
RTVSPost2010Prop47
 90
       50
102
RTVSPost2010PropOp47
 70
     1
102
RTVSPost2010Prop48
 90
       50
102
RTVSPost2010PropOp48
 70
     1
102
RTVSPost2010Prop49
280
     0
102
RTVSPost2010PropOp49
 70
     1
102
RTVSPost2010Prop50
 90
       50
102
RTVSPost2010PropOp50
 70
     1
102
RTVSPost2010Prop51ColorIndex
 90
      256
102
RTVSPost2010Prop51ColorRGB
 90
-16777216
102
RTVSPost2010PropOp51
 70
     0
102
RTVSPost2010Prop52
140
1.0
102
RTVSPost2010PropOp52
 70
     0
102
RTVSPost2010Prop53
 90
        2
102
RTVSPost2010PropOp53
 70
     1
102
RTVSPost2010Prop54
  1
strokes_ogs.tif
102
RTVSPost2010PropOp54
 70
     1
102
RTVSPost2010Prop55
280
     0
102
RTVSPost2010PropOp55
 70
     1
102
RTVSPost2010Prop56
140
1.0
102
RTVSPost2010PropOp56
 70
     1
102
RTVSPost2010Prop57
140
1.0
102
RTVSPost2010PropOp57
 70
     1
102
RTVSPropertyOp0
 70
     1
102
RTVSPropertyOp1
 70
     1
102
RTVSPropertyOp2
 70
     1
102
RTVSPropertyOp3
 70
     1
102
RTVSPropertyOp4
 70
     1
102
RTVSPropertyOp5
 70
     1
102
RTVSPropertyOp6
 70
     1
102
RTVSPropertyOp7
 70
     1
102
RTVSPropertyOp8
 70
     1
102
RTVSPropertyOp9
 70
     1
102
RTVSPropertyOp10
 70
     1
102
RTVSPropertyOp11
 70
     1
102
RTVSPropertyOp12
 70
     1
102
RTVSPropertyOp13
 70
     1
102
RTVSPropertyOp14
 70
     1
102
RTVSPropertyOp15
 70
     1
102
RTVSPropertyOp16
 70
     1
102
RTVSPropertyOp17
 70
     1
102
RTVSPropertyOp18
 70
     1
102
RTVSPropertyOp19
 70
     1
102
RTVSPropertyOp20
 70
     1
102
RTVSPropertyOp21
 70
     1
102
RTVSPropertyOp22
 70
     1
102
RTVSPropertyOp23
 70
     1
102
RTVSPropertyOp24
 70
     1
102
RTVSPropertyOp25
 70
     1
102
RTVSPropertyOp26
 70
     1
102
RTVSPropertyOp27
 70
     1
102
RTVSPropertyOp28
 70
     1
102
RTVSPropertyOp29
 70
     1
102
RTVSPropertyOp30
 70
     1
102
RTVSPropertyOp31
 70
     1
102
RTVSPropertyOp32
 70
     1
102
RTVSPropertyOp33
 70
     1
102
RTVSPropertyOp34
 70
     1
102
RTVSPropertyOp35
 70
     1
102
RTVSPropertyOp36
 70
     1
102
RTVSPropertyOp37
 70
     1
102
RTVSPropertyOp38
 70
     1
102
RTVSPropertyOp39
 70
     1
102
RTVSPropertyOp40
 70
     1
102
RTVSPropertyOp41
 70
     1
102
RTVSPropertyOp42
 70
     1
102
RTVSPropertyOp43
 70
     1
102
RTVSPropertyOp44
 70
     1
102
RTVSPropertyOp45
 70
     1
102
RTVSPropertyOp46
 70
     1
102
RTVSPropertyOp47
 70
     1
102
RTVSPropertyOp48
 70
     1
102
RTVSPropertyOp49
 70
     1
102
RTVSPropertyOp50
 70
     1
102
RTVSPropertyOp51
 70
     0
102
RTVSPropertyOp52
 70
     0
102
RTVSPropertyOp53
 70
     1
102
RTVSPropertyOp54
 70
     1
102
RTVSPropertyOp55
 70
     1
102
RTVSPropertyOp56
 70
     1
102
RTVSPropertyOp57
 70
     1
102
RTVSPropertyOp58
 70
     1
102
RTVSPropertyOp59
 70
     1
102
RTVSPropertyOp60
 70
     1
102
RTVSPropertyOp61
 70
     1
102
RTVSPropertyOp62
 70
     1
  0
XRECORD
  5
103E0
102
{ACAD_REACTORS
330
103DF
102
}
330
103DF
100
AcDbXrecord
280
     1
102
RTVSPost2010Prop28
280
     0
102
RTVSPost2010PropOp28
 70
     1
102
RTVSPost2010Prop29
280
     1
102
RTVSPost2010PropOp29
 70
     1
102
RTVSPost2010Prop30
280
     1
102
RTVSPost2010PropOp30
 70
     1
102
RTVSPost2010Prop31
280
     0
102
RTVSPost2010PropOp31
 70
     1
102
RTVSPost2010Prop32
280
     0
102
RTVSPost2010PropOp32
 70
     1
102
RTVSPost2010Prop33
280
     0
102
RTVSPost2010PropOp33
 70
     1
102
RTVSPost2010Prop34
280
     0
102
RTVSPost2010PropOp34
 70
     1
102
RTVSPost2010Prop35
280
     0
102
RTVSPost2010PropOp35
 70
     1
102
RTVSPost2010Prop36
280
     0
102
RTVSPost2010PropOp36
 70
     1
102
RTVSPost2010Prop37
 90
       50
102
RTVSPost2010PropOp37
 70
     1
102
RTVSPost2010Prop38
140
0.0
102
RTVSPost2010PropOp38
 70
     1
102
RTVSPost2010Prop39
140
1.0
102
RTVSPost2010PropOp39
 70
     1
102
RTVSPost2010Prop40
 90
        0
102
RTVSPost2010PropOp40
 70
     1
102
RTVSPost2010Prop41ColorIndex
 90
       18
102
RTVSPost2010Prop41ColorRGB
 90
        0
102
RTVSPost2010PropOp41
 70
     1
102
RTVSPost2010Prop42
 90
       50
102
RTVSPost2010PropOp42
 70
     1
102
RTVSPost2010Prop43
 90
        3
102
RTVSPost2010PropOp43
 70
     1
102
RTVSPost2010Prop44ColorIndex
 90
        5
102
RTVSPost2010Prop44ColorRGB
 90
      255
102
RTVSPost2010PropOp44
 70
     1
102
RTVSPost2010Prop45
280
     0
102
RTVSPost2010PropOp45
 70
     1
102
RTVSPost2010Prop46
 90
       50
102
RTVSPost2010PropOp46
 70
     1
102
RTVSPost2010Prop47
 90
       50
102
RTVSPost2010PropOp47
 70
     1
102
RTVSPost2010Prop48
 90
       50
102
RTVSPost2010PropOp48
 70
     1
102
RTVSPost2010Prop49
280
     0
102
RTVSPost2010PropOp49
 70
     1
102
RTVSPost2010Prop50
 90
       50
102
RTVSPost2010PropOp50
 70
     1
102
RTVSPost2010Prop51ColorIndex
 90
      256
102
RTVSPost2010Prop51ColorRGB
 90
-16777216
102
RTVSPost2010PropOp51
 70
     0
102
RTVSPost2010Prop52
140
1.0
102
RTVSPost2010PropOp52
 70
     0
102
RTVSPost2010Prop53
 90
        2
102
RTVSPost2010PropOp53
 70
     1
102
RTVSPost2010Prop54
  1
strokes_ogs.tif
102
RTVSPost2010PropOp54
 70
     1
102
RTVSPost2010Prop55
280
     0
102
RTVSPost2010PropOp55
 70
     1
102
RTVSPost2010Prop56
140
1.0
102
RTVSPost2010PropOp56
 70
     1
102
RTVSPost2010Prop57
140
1.0
102
RTVSPost2010PropOp57
 70
     1
102
RTVSPropertyOp0
 70
     1
102
RTVSPropertyOp1
 70
     1
102
RTVSPropertyOp2
 70
     1
102
RTVSPropertyOp3
 70
     1
102
RTVSPropertyOp4
 70
     1
102
RTVSPropertyOp5
 70
     1
102
RTVSPropertyOp6
 70
     1
102
RTVSPropertyOp7
 70
     1
102
RTVSPropertyOp8
 70
     1
102
RTVSPropertyOp9
 70
     1
102
RTVSPropertyOp10
 70
     1
102
RTVSPropertyOp11
 70
     1
102
RTVSPropertyOp12
 70
     1
102
RTVSPropertyOp13
 70
     1
102
RTVSPropertyOp14
 70
     1
102
RTVSPropertyOp15
 70
     1
102
RTVSPropertyOp16
 70
     1
102
RTVSPropertyOp17
 70
     1
102
RTVSPropertyOp18
 70
     1
102
RTVSPropertyOp19
 70
     1
102
RTVSPropertyOp20
 70
     1
102
RTVSPropertyOp21
 70
     1
102
RTVSPropertyOp22
 70
     1
102
RTVSPropertyOp23
 70
     1
102
RTVSPropertyOp24
 70
     1
102
RTVSPropertyOp25
 70
     1
102
RTVSPropertyOp26
 70
     1
102
RTVSPropertyOp27
 70
     1
102
RTVSPropertyOp28
 70
     1
102
RTVSPropertyOp29
 70
     1
102
RTVSPropertyOp30
 70
     1
102
RTVSPropertyOp31
 70
     1
102
RTVSPropertyOp32
 70
     1
102
RTVSPropertyOp33
 70
     1
102
RTVSPropertyOp34
 70
     1
102
RTVSPropertyOp35
 70
     1
102
RTVSPropertyOp36
 70
     1
102
RTVSPropertyOp37
 70
     1
102
RTVSPropertyOp38
 70
     1
102
RTVSPropertyOp39
 70
     1
102
RTVSPropertyOp40
 70
     1
102
RTVSPropertyOp41
 70
     1
102
RTVSPropertyOp42
 70
     1
102
RTVSPropertyOp43
 70
     1
102
RTVSPropertyOp44
 70
     1
102
RTVSPropertyOp45
 70
     1
102
RTVSPropertyOp46
 70
     1
102
RTVSPropertyOp47
 70
     1
102
RTVSPropertyOp48
 70
     1
102
RTVSPropertyOp49
 70
     1
102
RTVSPropertyOp50
 70
     1
102
RTVSPropertyOp51
 70
     0
102
RTVSPropertyOp52
 70
     0
102
RTVSPropertyOp53
 70
     1
102
RTVSPropertyOp54
 70
     1
102
RTVSPropertyOp55
 70
     1
102
RTVSPropertyOp56
 70
     1
102
RTVSPropertyOp57
 70
     1
102
RTVSPropertyOp58
 70
     1
102
RTVSPropertyOp59
 70
     1
102
RTVSPropertyOp60
 70
     1
102
RTVSPropertyOp61
 70
     1
102
RTVSPropertyOp62
 70
     1
  0
XRECORD
  5
103E2
102
{ACAD_REACTORS
330
103E1
102
}
330
103E1
100
AcDbXrecord
280
     1
102
RTVSPost2010Prop28
280
     0
102
RTVSPost2010PropOp28
 70
     1
102
RTVSPost2010Prop29
280
     1
102
RTVSPost2010PropOp29
 70
     1
102
RTVSPost2010Prop30
280
     1
102
RTVSPost2010PropOp30
 70
     1
102
RTVSPost2010Prop31
280
     0
102
RTVSPost2010PropOp31
 70
     1
102
RTVSPost2010Prop32
280
     0
102
RTVSPost2010PropOp32
 70
     1
102
RTVSPost2010Prop33
280
     0
102
RTVSPost2010PropOp33
 70
     1
102
RTVSPost2010Prop34
280
     0
102
RTVSPost2010PropOp34
 70
     1
102
RTVSPost2010Prop35
280
     0
102
RTVSPost2010PropOp35
 70
     1
102
RTVSPost2010Prop36
280
     0
102
RTVSPost2010PropOp36
 70
     1
102
RTVSPost2010Prop37
 90
       50
102
RTVSPost2010PropOp37
 70
     1
102
RTVSPost2010Prop38
140
0.0
102
RTVSPost2010PropOp38
 70
     1
102
RTVSPost2010Prop39
140
1.0
102
RTVSPost2010PropOp39
 70
     1
102
RTVSPost2010Prop40
 90
        0
102
RTVSPost2010PropOp40
 70
     1
102
RTVSPost2010Prop41ColorIndex
 90
       18
102
RTVSPost2010Prop41ColorRGB
 90
        0
102
RTVSPost2010PropOp41
 70
     1
102
RTVSPost2010Prop42
 90
       50
102
RTVSPost2010PropOp42
 70
     1
102
RTVSPost2010Prop43
 90
        3
102
RTVSPost2010PropOp43
 70
     1
102
RTVSPost2010Prop44ColorIndex
 90
        5
102
RTVSPost2010Prop44ColorRGB
 90
      255
102
RTVSPost2010PropOp44
 70
     1
102
RTVSPost2010Prop45
280
     0
102
RTVSPost2010PropOp45
 70
     1
102
RTVSPost2010Prop46
 90
       50
102
RTVSPost2010PropOp46
 70
     1
102
RTVSPost2010Prop47
 90
       50
102
RTVSPost2010PropOp47
 70
     1
102
RTVSPost2010Prop48
 90
       50
102
RTVSPost2010PropOp48
 70
     1
102
RTVSPost2010Prop49
280
     0
102
RTVSPost2010PropOp49
 70
     1
102
RTVSPost2010Prop50
 90
       50
102
RTVSPost2010PropOp50
 70
     1
102
RTVSPost2010Prop51ColorIndex
 90
      256
102
RTVSPost2010Prop51ColorRGB
 90
-16777216
102
RTVSPost2010PropOp51
 70
     0
102
RTVSPost2010Prop52
140
1.0
102
RTVSPost2010PropOp52
 70
     0
102
RTVSPost2010Prop53
 90
        2
102
RTVSPost2010PropOp53
 70
     1
102
RTVSPost2010Prop54
  1
strokes_ogs.tif
102
RTVSPost2010PropOp54
 70
     1
102
RTVSPost2010Prop55
280
     0
102
RTVSPost2010PropOp55
 70
     1
102
RTVSPost2010Prop56
140
1.0
102
RTVSPost2010PropOp56
 70
     1
102
RTVSPost2010Prop57
140
1.0
102
RTVSPost2010PropOp57
 70
     1
102
RTVSPropertyOp0
 70
     1
102
RTVSPropertyOp1
 70
     1
102
RTVSPropertyOp2
 70
     1
102
RTVSPropertyOp3
 70
     1
102
RTVSPropertyOp4
 70
     1
102
RTVSPropertyOp5
 70
     1
102
RTVSPropertyOp6
 70
     1
102
RTVSPropertyOp7
 70
     1
102
RTVSPropertyOp8
 70
     1
102
RTVSPropertyOp9
 70
     1
102
RTVSPropertyOp10
 70
     1
102
RTVSPropertyOp11
 70
     1
102
RTVSPropertyOp12
 70
     1
102
RTVSPropertyOp13
 70
     1
102
RTVSPropertyOp14
 70
     1
102
RTVSPropertyOp15
 70
     1
102
RTVSPropertyOp16
 70
     1
102
RTVSPropertyOp17
 70
     1
102
RTVSPropertyOp18
 70
     1
102
RTVSPropertyOp19
 70
     1
102
RTVSPropertyOp20
 70
     1
102
RTVSPropertyOp21
 70
     1
102
RTVSPropertyOp22
 70
     1
102
RTVSPropertyOp23
 70
     1
102
RTVSPropertyOp24
 70
     1
102
RTVSPropertyOp25
 70
     1
102
RTVSPropertyOp26
 70
     1
102
RTVSPropertyOp27
 70
     1
102
RTVSPropertyOp28
 70
     1
102
RTVSPropertyOp29
 70
     1
102
RTVSPropertyOp30
 70
     1
102
RTVSPropertyOp31
 70
     1
102
RTVSPropertyOp32
 70
     1
102
RTVSPropertyOp33
 70
     1
102
RTVSPropertyOp34
 70
     1
102
RTVSPropertyOp35
 70
     1
102
RTVSPropertyOp36
 70
     1
102
RTVSPropertyOp37
 70
     1
102
RTVSPropertyOp38
 70
     1
102
RTVSPropertyOp39
 70
     1
102
RTVSPropertyOp40
 70
     1
102
RTVSPropertyOp41
 70
     1
102
RTVSPropertyOp42
 70
     1
102
RTVSPropertyOp43
 70
     1
102
RTVSPropertyOp44
 70
     1
102
RTVSPropertyOp45
 70
     1
102
RTVSPropertyOp46
 70
     1
102
RTVSPropertyOp47
 70
     1
102
RTVSPropertyOp48
 70
     1
102
RTVSPropertyOp49
 70
     1
102
RTVSPropertyOp50
 70
     1
102
RTVSPropertyOp51
 70
     0
102
RTVSPropertyOp52
 70
     0
102
RTVSPropertyOp53
 70
     1
102
RTVSPropertyOp54
 70
     1
102
RTVSPropertyOp55
 70
     1
102
RTVSPropertyOp56
 70
     1
102
RTVSPropertyOp57
 70
     1
102
RTVSPropertyOp58
 70
     1
102
RTVSPropertyOp59
 70
     1
102
RTVSPropertyOp60
 70
     1
102
RTVSPropertyOp61
 70
     1
102
RTVSPropertyOp62
 70
     1
  0
XRECORD
  5
103E4
102
{ACAD_REACTORS
330
103E3
102
}
330
103E3
100
AcDbXrecord
280
     1
102
RTVSPost2010Prop28
280
     0
102
RTVSPost2010PropOp28
 70
     1
102
RTVSPost2010Prop29
280
     1
102
RTVSPost2010PropOp29
 70
     1
102
RTVSPost2010Prop30
280
     1
102
RTVSPost2010PropOp30
 70
     1
102
RTVSPost2010Prop31
280
     0
102
RTVSPost2010PropOp31
 70
     1
102
RTVSPost2010Prop32
280
     0
102
RTVSPost2010PropOp32
 70
     1
102
RTVSPost2010Prop33
280
     0
102
RTVSPost2010PropOp33
 70
     1
102
RTVSPost2010Prop34
280
     0
102
RTVSPost2010PropOp34
 70
     1
102
RTVSPost2010Prop35
280
     0
102
RTVSPost2010PropOp35
 70
     1
102
RTVSPost2010Prop36
280
     0
102
RTVSPost2010PropOp36
 70
     1
102
RTVSPost2010Prop37
 90
       50
102
RTVSPost2010PropOp37
 70
     1
102
RTVSPost2010Prop38
140
0.0
102
RTVSPost2010PropOp38
 70
     1
102
RTVSPost2010Prop39
140
1.0
102
RTVSPost2010PropOp39
 70
     1
102
RTVSPost2010Prop40
 90
        0
102
RTVSPost2010PropOp40
 70
     1
102
RTVSPost2010Prop41ColorIndex
 90
       18
102
RTVSPost2010Prop41ColorRGB
 90
        0
102
RTVSPost2010PropOp41
 70
     1
102
RTVSPost2010Prop42
 90
       50
102
RTVSPost2010PropOp42
 70
     1
102
RTVSPost2010Prop43
 90
        3
102
RTVSPost2010PropOp43
 70
     1
102
RTVSPost2010Prop44ColorIndex
 90
        5
102
RTVSPost2010Prop44ColorRGB
 90
      255
102
RTVSPost2010PropOp44
 70
     1
102
RTVSPost2010Prop45
280
     0
102
RTVSPost2010PropOp45
 70
     1
102
RTVSPost2010Prop46
 90
       50
102
RTVSPost2010PropOp46
 70
     1
102
RTVSPost2010Prop47
 90
       50
102
RTVSPost2010PropOp47
 70
     1
102
RTVSPost2010Prop48
 90
       50
102
RTVSPost2010PropOp48
 70
     1
102
RTVSPost2010Prop49
280
     0
102
RTVSPost2010PropOp49
 70
     1
102
RTVSPost2010Prop50
 90
       50
102
RTVSPost2010PropOp50
 70
     1
102
RTVSPost2010Prop51ColorIndex
 90
      256
102
RTVSPost2010Prop51ColorRGB
 90
-16777216
102
RTVSPost2010PropOp51
 70
     0
102
RTVSPost2010Prop52
140
1.0
102
RTVSPost2010PropOp52
 70
     0
102
RTVSPost2010Prop53
 90
        2
102
RTVSPost2010PropOp53
 70
     1
102
RTVSPost2010Prop54
  1
strokes_ogs.tif
102
RTVSPost2010PropOp54
 70
     1
102
RTVSPost2010Prop55
280
     0
102
RTVSPost2010PropOp55
 70
     1
102
RTVSPost2010Prop56
140
1.0
102
RTVSPost2010PropOp56
 70
     1
102
RTVSPost2010Prop57
140
1.0
102
RTVSPost2010PropOp57
 70
     1
102
RTVSPropertyOp0
 70
     1
102
RTVSPropertyOp1
 70
     1
102
RTVSPropertyOp2
 70
     1
102
RTVSPropertyOp3
 70
     1
102
RTVSPropertyOp4
 70
     1
102
RTVSPropertyOp5
 70
     1
102
RTVSPropertyOp6
 70
     1
102
RTVSPropertyOp7
 70
     1
102
RTVSPropertyOp8
 70
     1
102
RTVSPropertyOp9
 70
     1
102
RTVSPropertyOp10
 70
     1
102
RTVSPropertyOp11
 70
     1
102
RTVSPropertyOp12
 70
     1
102
RTVSPropertyOp13
 70
     1
102
RTVSPropertyOp14
 70
     1
102
RTVSPropertyOp15
 70
     1
102
RTVSPropertyOp16
 70
     1
102
RTVSPropertyOp17
 70
     1
102
RTVSPropertyOp18
 70
     1
102
RTVSPropertyOp19
 70
     1
102
RTVSPropertyOp20
 70
     1
102
RTVSPropertyOp21
 70
     1
102
RTVSPropertyOp22
 70
     1
102
RTVSPropertyOp23
 70
     1
102
RTVSPropertyOp24
 70
     1
102
RTVSPropertyOp25
 70
     1
102
RTVSPropertyOp26
 70
     1
102
RTVSPropertyOp27
 70
     1
102
RTVSPropertyOp28
 70
     1
102
RTVSPropertyOp29
 70
     1
102
RTVSPropertyOp30
 70
     1
102
RTVSPropertyOp31
 70
     1
102
RTVSPropertyOp32
 70
     1
102
RTVSPropertyOp33
 70
     1
102
RTVSPropertyOp34
 70
     1
102
RTVSPropertyOp35
 70
     1
102
RTVSPropertyOp36
 70
     1
102
RTVSPropertyOp37
 70
     1
102
RTVSPropertyOp38
 70
     1
102
RTVSPropertyOp39
 70
     1
102
RTVSPropertyOp40
 70
     1
102
RTVSPropertyOp41
 70
     1
102
RTVSPropertyOp42
 70
     1
102
RTVSPropertyOp43
 70
     1
102
RTVSPropertyOp44
 70
     1
102
RTVSPropertyOp45
 70
     1
102
RTVSPropertyOp46
 70
     1
102
RTVSPropertyOp47
 70
     1
102
RTVSPropertyOp48
 70
     1
102
RTVSPropertyOp49
 70
     1
102
RTVSPropertyOp50
 70
     1
102
RTVSPropertyOp51
 70
     0
102
RTVSPropertyOp52
 70
     0
102
RTVSPropertyOp53
 70
     1
102
RTVSPropertyOp54
 70
     1
102
RTVSPropertyOp55
 70
     1
102
RTVSPropertyOp56
 70
     1
102
RTVSPropertyOp57
 70
     1
102
RTVSPropertyOp58
 70
     1
102
RTVSPropertyOp59
 70
     1
102
RTVSPropertyOp60
 70
     1
102
RTVSPropertyOp61
 70
     1
102
RTVSPropertyOp62
 70
     1
  0
XRECORD
  5
10406
102
{ACAD_REACTORS
330
10405
102
}
330
10405
100
AcDbXrecord
280
     1
102
RTVSPost2010Prop28
280
     0
102
RTVSPost2010PropOp28
 70
     1
102
RTVSPost2010Prop29
280
     1
102
RTVSPost2010PropOp29
 70
     1
102
RTVSPost2010Prop30
280
     1
102
RTVSPost2010PropOp30
 70
     1
102
RTVSPost2010Prop31
280
     0
102
RTVSPost2010PropOp31
 70
     1
102
RTVSPost2010Prop32
280
     0
102
RTVSPost2010PropOp32
 70
     1
102
RTVSPost2010Prop33
280
     0
102
RTVSPost2010PropOp33
 70
     1
102
RTVSPost2010Prop34
280
     0
102
RTVSPost2010PropOp34
 70
     1
102
RTVSPost2010Prop35
280
     0
102
RTVSPost2010PropOp35
 70
     1
102
RTVSPost2010Prop36
280
     0
102
RTVSPost2010PropOp36
 70
     1
102
RTVSPost2010Prop37
 90
       50
102
RTVSPost2010PropOp37
 70
     1
102
RTVSPost2010Prop38
140
0.0
102
RTVSPost2010PropOp38
 70
     1
102
RTVSPost2010Prop39
140
1.0
102
RTVSPost2010PropOp39
 70
     1
102
RTVSPost2010Prop40
 90
        0
102
RTVSPost2010PropOp40
 70
     1
102
RTVSPost2010Prop41ColorIndex
 90
       18
102
RTVSPost2010Prop41ColorRGB
 90
        0
102
RTVSPost2010PropOp41
 70
     1
102
RTVSPost2010Prop42
 90
       50
102
RTVSPost2010PropOp42
 70
     1
102
RTVSPost2010Prop43
 90
        3
102
RTVSPost2010PropOp43
 70
     1
102
RTVSPost2010Prop44ColorIndex
 90
        5
102
RTVSPost2010Prop44ColorRGB
 90
      255
102
RTVSPost2010PropOp44
 70
     1
102
RTVSPost2010Prop45
280
     0
102
RTVSPost2010PropOp45
 70
     1
102
RTVSPost2010Prop46
 90
       50
102
RTVSPost2010PropOp46
 70
     1
102
RTVSPost2010Prop47
 90
       50
102
RTVSPost2010PropOp47
 70
     1
102
RTVSPost2010Prop48
 90
       50
102
RTVSPost2010PropOp48
 70
     1
102
RTVSPost2010Prop49
280
     0
102
RTVSPost2010PropOp49
 70
     1
102
RTVSPost2010Prop50
 90
       50
102
RTVSPost2010PropOp50
 70
     1
102
RTVSPost2010Prop51ColorIndex
 90
      256
102
RTVSPost2010Prop51ColorRGB
 90
-16777216
102
RTVSPost2010PropOp51
 70
     0
102
RTVSPost2010Prop52
140
1.0
102
RTVSPost2010PropOp52
 70
     0
102
RTVSPost2010Prop53
 90
        2
102
RTVSPost2010PropOp53
 70
     1
102
RTVSPost2010Prop54
  1
strokes_ogs.tif
102
RTVSPost2010PropOp54
 70
     1
102
RTVSPost2010Prop55
280
     0
102
RTVSPost2010PropOp55
 70
     1
102
RTVSPost2010Prop56
140
1.0
102
RTVSPost2010PropOp56
 70
     1
102
RTVSPost2010Prop57
140
1.0
102
RTVSPost2010PropOp57
 70
     1
102
RTVSPropertyOp0
 70
     1
102
RTVSPropertyOp1
 70
     1
102
RTVSPropertyOp2
 70
     1
102
RTVSPropertyOp3
 70
     1
102
RTVSPropertyOp4
 70
     1
102
RTVSPropertyOp5
 70
     1
102
RTVSPropertyOp6
 70
     1
102
RTVSPropertyOp7
 70
     1
102
RTVSPropertyOp8
 70
     1
102
RTVSPropertyOp9
 70
     1
102
RTVSPropertyOp10
 70
     1
102
RTVSPropertyOp11
 70
     1
102
RTVSPropertyOp12
 70
     1
102
RTVSPropertyOp13
 70
     1
102
RTVSPropertyOp14
 70
     1
102
RTVSPropertyOp15
 70
     1
102
RTVSPropertyOp16
 70
     1
102
RTVSPropertyOp17
 70
     1
102
RTVSPropertyOp18
 70
     1
102
RTVSPropertyOp19
 70
     1
102
RTVSPropertyOp20
 70
     1
102
RTVSPropertyOp21
 70
     1
102
RTVSPropertyOp22
 70
     1
102
RTVSPropertyOp23
 70
     1
102
RTVSPropertyOp24
 70
     1
102
RTVSPropertyOp25
 70
     1
102
RTVSPropertyOp26
 70
     1
102
RTVSPropertyOp27
 70
     1
102
RTVSPropertyOp28
 70
     1
102
RTVSPropertyOp29
 70
     1
102
RTVSPropertyOp30
 70
     1
102
RTVSPropertyOp31
 70
     1
102
RTVSPropertyOp32
 70
     1
102
RTVSPropertyOp33
 70
     1
102
RTVSPropertyOp34
 70
     1
102
RTVSPropertyOp35
 70
     1
102
RTVSPropertyOp36
 70
     1
102
RTVSPropertyOp37
 70
     1
102
RTVSPropertyOp38
 70
     1
102
RTVSPropertyOp39
 70
     1
102
RTVSPropertyOp40
 70
     1
102
RTVSPropertyOp41
 70
     1
102
RTVSPropertyOp42
 70
     1
102
RTVSPropertyOp43
 70
     1
102
RTVSPropertyOp44
 70
     1
102
RTVSPropertyOp45
 70
     1
102
RTVSPropertyOp46
 70
     1
102
RTVSPropertyOp47
 70
     1
102
RTVSPropertyOp48
 70
     1
102
RTVSPropertyOp49
 70
     1
102
RTVSPropertyOp50
 70
     1
102
RTVSPropertyOp51
 70
     0
102
RTVSPropertyOp52
 70
     0
102
RTVSPropertyOp53
 70
     1
102
RTVSPropertyOp54
 70
     1
102
RTVSPropertyOp55
 70
     1
102
RTVSPropertyOp56
 70
     1
102
RTVSPropertyOp57
 70
     1
102
RTVSPropertyOp58
 70
     1
102
RTVSPropertyOp59
 70
     1
102
RTVSPropertyOp60
 70
     1
102
RTVSPropertyOp61
 70
     1
102
RTVSPropertyOp62
 70
     1
  0
XRECORD
  5
10412
102
{ACAD_REACTORS
330
10411
102
}
330
10411
100
AcDbXrecord
280
     1
102
RTVSPost2010Prop28
280
     0
102
RTVSPost2010PropOp28
 70
     0
102
RTVSPost2010Prop29
280
     1
102
RTVSPost2010PropOp29
 70
     0
102
RTVSPost2010Prop30
280
     1
102
RTVSPost2010PropOp30
 70
     0
102
RTVSPost2010Prop31
280
     0
102
RTVSPost2010PropOp31
 70
     0
102
RTVSPost2010Prop32
280
     0
102
RTVSPost2010PropOp32
 70
     0
102
RTVSPost2010Prop33
280
     0
102
RTVSPost2010PropOp33
 70
     0
102
RTVSPost2010Prop34
280
     0
102
RTVSPost2010PropOp34
 70
     0
102
RTVSPost2010Prop35
280
     0
102
RTVSPost2010PropOp35
 70
     0
102
RTVSPost2010Prop36
280
     0
102
RTVSPost2010PropOp36
 70
     0
102
RTVSPost2010Prop37
 90
       50
102
RTVSPost2010PropOp37
 70
     0
102
RTVSPost2010Prop38
140
0.0
102
RTVSPost2010PropOp38
 70
     0
102
RTVSPost2010Prop39
140
1.0
102
RTVSPost2010PropOp39
 70
     0
102
RTVSPost2010Prop40
 90
        0
102
RTVSPost2010PropOp40
 70
     0
102
RTVSPost2010Prop41ColorIndex
 90
       18
102
RTVSPost2010Prop41ColorRGB
 90
        0
102
RTVSPost2010PropOp41
 70
     0
102
RTVSPost2010Prop42
 90
       50
102
RTVSPost2010PropOp42
 70
     0
102
RTVSPost2010Prop43
 90
        3
102
RTVSPost2010PropOp43
 70
     0
102
RTVSPost2010Prop44ColorIndex
 90
        5
102
RTVSPost2010Prop44ColorRGB
 90
      255
102
RTVSPost2010PropOp44
 70
     0
102
RTVSPost2010Prop45
280
     0
102
RTVSPost2010PropOp45
 70
     0
102
RTVSPost2010Prop46
 90
       50
102
RTVSPost2010PropOp46
 70
     0
102
RTVSPost2010Prop47
 90
       50
102
RTVSPost2010PropOp47
 70
     0
102
RTVSPost2010Prop48
 90
       50
102
RTVSPost2010PropOp48
 70
     0
102
RTVSPost2010Prop49
280
     0
102
RTVSPost2010PropOp49
 70
     0
102
RTVSPost2010Prop50
 90
       50
102
RTVSPost2010PropOp50
 70
     0
102
RTVSPost2010Prop51ColorIndex
 90
      256
102
RTVSPost2010Prop51ColorRGB
 90
-16777216
102
RTVSPost2010PropOp51
 70
     0
102
RTVSPost2010Prop52
140
1.0
102
RTVSPost2010PropOp52
 70
     0
102
RTVSPost2010Prop53
 90
        2
102
RTVSPost2010PropOp53
 70
     0
102
RTVSPost2010Prop54
  1
strokes_ogs.tif
102
RTVSPost2010PropOp54
 70
     0
102
RTVSPost2010Prop55
280
     0
102
RTVSPost2010PropOp55
 70
     0
102
RTVSPost2010Prop56
140
1.0
102
RTVSPost2010PropOp56
 70
     0
102
RTVSPost2010Prop57
140
1.0
102
RTVSPost2010PropOp57
 70
     0
102
RTVSPropertyOp0
 70
     0
102
RTVSPropertyOp1
 70
     0
102
RTVSPropertyOp2
 70
     0
102
RTVSPropertyOp3
 70
     0
102
RTVSPropertyOp4
 70
     0
102
RTVSPropertyOp5
 70
     0
102
RTVSPropertyOp6
 70
     0
102
RTVSPropertyOp7
 70
     0
102
RTVSPropertyOp8
 70
     0
102
RTVSPropertyOp9
 70
     0
102
RTVSPropertyOp10
 70
     0
102
RTVSPropertyOp11
 70
     0
102
RTVSPropertyOp12
 70
     0
102
RTVSPropertyOp13
 70
     0
102
RTVSPropertyOp14
 70
     2
102
RTVSPropertyOp15
 70
     0
102
RTVSPropertyOp16
 70
     0
102
RTVSPropertyOp17
 70
     0
102
RTVSPropertyOp18
 70
     0
102
RTVSPropertyOp19
 70
     0
102
RTVSPropertyOp20
 70
     0
102
RTVSPropertyOp21
 70
     0
102
RTVSPropertyOp22
 70
     0
102
RTVSPropertyOp23
 70
     0
102
RTVSPropertyOp24
 70
     0
102
RTVSPropertyOp25
 70
     0
102
RTVSPropertyOp26
 70
     0
102
RTVSPropertyOp27
 70
     0
102
RTVSPropertyOp28
 70
     0
102
RTVSPropertyOp29
 70
     0
102
RTVSPropertyOp30
 70
     0
102
RTVSPropertyOp31
 70
     0
102
RTVSPropertyOp32
 70
     0
102
RTVSPropertyOp33
 70
     0
102
RTVSPropertyOp34
 70
     0
102
RTVSPropertyOp35
 70
     0
102
RTVSPropertyOp36
 70
     0
102
RTVSPropertyOp37
 70
     0
102
RTVSPropertyOp38
 70
     0
102
RTVSPropertyOp39
 70
     0
102
RTVSPropertyOp40
 70
     0
102
RTVSPropertyOp41
 70
     0
102
RTVSPropertyOp42
 70
     0
102
RTVSPropertyOp43
 70
     0
102
RTVSPropertyOp44
 70
     0
102
RTVSPropertyOp45
 70
     0
102
RTVSPropertyOp46
 70
     0
102
RTVSPropertyOp47
 70
     0
102
RTVSPropertyOp48
 70
     0
102
RTVSPropertyOp49
 70
     0
102
RTVSPropertyOp50
 70
     0
102
RTVSPropertyOp51
 70
     0
102
RTVSPropertyOp52
 70
     0
102
RTVSPropertyOp53
 70
     0
102
RTVSPropertyOp54
 70
     0
102
RTVSPropertyOp55
 70
     0
102
RTVSPropertyOp56
 70
     0
102
RTVSPropertyOp57
 70
     0
102
RTVSPropertyOp58
 70
     0
102
RTVSPropertyOp59
 70
     0
102
RTVSPropertyOp60
 70
     0
102
RTVSPropertyOp61
 70
     0
102
RTVSPropertyOp62
 70
     0
  0
XRECORD
  5
103F8
102
{ACAD_REACTORS
330
103F7
102
}
330
103F7
100
AcDbXrecord
280
     1
102
RTVSPost2010Prop28
280
     0
102
RTVSPost2010PropOp28
 70
     1
102
RTVSPost2010Prop29
280
     1
102
RTVSPost2010PropOp29
 70
     1
102
RTVSPost2010Prop30
280
     1
102
RTVSPost2010PropOp30
 70
     1
102
RTVSPost2010Prop31
280
     0
102
RTVSPost2010PropOp31
 70
     1
102
RTVSPost2010Prop32
280
     0
102
RTVSPost2010PropOp32
 70
     1
102
RTVSPost2010Prop33
280
     0
102
RTVSPost2010PropOp33
 70
     1
102
RTVSPost2010Prop34
280
     0
102
RTVSPost2010PropOp34
 70
     1
102
RTVSPost2010Prop35
280
     0
102
RTVSPost2010PropOp35
 70
     1
102
RTVSPost2010Prop36
280
     0
102
RTVSPost2010PropOp36
 70
     1
102
RTVSPost2010Prop37
 90
       50
102
RTVSPost2010PropOp37
 70
     1
102
RTVSPost2010Prop38
140
0.0
102
RTVSPost2010PropOp38
 70
     1
102
RTVSPost2010Prop39
140
1.0
102
RTVSPost2010PropOp39
 70
     1
102
RTVSPost2010Prop40
 90
        0
102
RTVSPost2010PropOp40
 70
     1
102
RTVSPost2010Prop41ColorIndex
 90
       18
102
RTVSPost2010Prop41ColorRGB
 90
        0
102
RTVSPost2010PropOp41
 70
     1
102
RTVSPost2010Prop42
 90
       50
102
RTVSPost2010PropOp42
 70
     1
102
RTVSPost2010Prop43
 90
        3
102
RTVSPost2010PropOp43
 70
     1
102
RTVSPost2010Prop44ColorIndex
 90
        5
102
RTVSPost2010Prop44ColorRGB
 90
      255
102
RTVSPost2010PropOp44
 70
     1
102
RTVSPost2010Prop45
280
     0
102
RTVSPost2010PropOp45
 70
     1
102
RTVSPost2010Prop46
 90
       50
102
RTVSPost2010PropOp46
 70
     1
102
RTVSPost2010Prop47
 90
       50
102
RTVSPost2010PropOp47
 70
     1
102
RTVSPost2010Prop48
 90
       50
102
RTVSPost2010PropOp48
 70
     1
102
RTVSPost2010Prop49
280
     0
102
RTVSPost2010PropOp49
 70
     1
102
RTVSPost2010Prop50
 90
       50
102
RTVSPost2010PropOp50
 70
     1
102
RTVSPost2010Prop51ColorIndex
 90
      256
102
RTVSPost2010Prop51ColorRGB
 90
-16777216
102
RTVSPost2010PropOp51
 70
     0
102
RTVSPost2010Prop52
140
1.0
102
RTVSPost2010PropOp52
 70
     0
102
RTVSPost2010Prop53
 90
        2
102
RTVSPost2010PropOp53
 70
     1
102
RTVSPost2010Prop54
  1
strokes_ogs.tif
102
RTVSPost2010PropOp54
 70
     1
102
RTVSPost2010Prop55
280
     0
102
RTVSPost2010PropOp55
 70
     1
102
RTVSPost2010Prop56
140
1.0
102
RTVSPost2010PropOp56
 70
     1
102
RTVSPost2010Prop57
140
1.0
102
RTVSPost2010PropOp57
 70
     1
102
RTVSPropertyOp0
 70
     1
102
RTVSPropertyOp1
 70
     1
102
RTVSPropertyOp2
 70
     1
102
RTVSPropertyOp3
 70
     1
102
RTVSPropertyOp4
 70
     1
102
RTVSPropertyOp5
 70
     1
102
RTVSPropertyOp6
 70
     1
102
RTVSPropertyOp7
 70
     1
102
RTVSPropertyOp8
 70
     1
102
RTVSPropertyOp9
 70
     1
102
RTVSPropertyOp10
 70
     1
102
RTVSPropertyOp11
 70
     1
102
RTVSPropertyOp12
 70
     1
102
RTVSPropertyOp13
 70
     1
102
RTVSPropertyOp14
 70
     1
102
RTVSPropertyOp15
 70
     1
102
RTVSPropertyOp16
 70
     1
102
RTVSPropertyOp17
 70
     1
102
RTVSPropertyOp18
 70
     1
102
RTVSPropertyOp19
 70
     1
102
RTVSPropertyOp20
 70
     1
102
RTVSPropertyOp21
 70
     1
102
RTVSPropertyOp22
 70
     1
102
RTVSPropertyOp23
 70
     1
102
RTVSPropertyOp24
 70
     1
102
RTVSPropertyOp25
 70
     1
102
RTVSPropertyOp26
 70
     1
102
RTVSPropertyOp27
 70
     1
102
RTVSPropertyOp28
 70
     1
102
RTVSPropertyOp29
 70
     1
102
RTVSPropertyOp30
 70
     1
102
RTVSPropertyOp31
 70
     1
102
RTVSPropertyOp32
 70
     1
102
RTVSPropertyOp33
 70
     1
102
RTVSPropertyOp34
 70
     1
102
RTVSPropertyOp35
 70
     1
102
RTVSPropertyOp36
 70
     1
102
RTVSPropertyOp37
 70
     1
102
RTVSPropertyOp38
 70
     1
102
RTVSPropertyOp39
 70
     1
102
RTVSPropertyOp40
 70
     1
102
RTVSPropertyOp41
 70
     1
102
RTVSPropertyOp42
 70
     1
102
RTVSPropertyOp43
 70
     1
102
RTVSPropertyOp44
 70
     1
102
RTVSPropertyOp45
 70
     1
102
RTVSPropertyOp46
 70
     1
102
RTVSPropertyOp47
 70
     1
102
RTVSPropertyOp48
 70
     1
102
RTVSPropertyOp49
 70
     1
102
RTVSPropertyOp50
 70
     1
102
RTVSPropertyOp51
 70
     0
102
RTVSPropertyOp52
 70
     0
102
RTVSPropertyOp53
 70
     1
102
RTVSPropertyOp54
 70
     1
102
RTVSPropertyOp55
 70
     1
102
RTVSPropertyOp56
 70
     1
102
RTVSPropertyOp57
 70
     1
102
RTVSPropertyOp58
 70
     1
102
RTVSPropertyOp59
 70
     1
102
RTVSPropertyOp60
 70
     1
102
RTVSPropertyOp61
 70
     1
102
RTVSPropertyOp62
 70
     1
  0
XRECORD
  5
10414
102
{ACAD_REACTORS
330
10413
102
}
330
10413
100
AcDbXrecord
280
     1
102
RTVSPost2010Prop28
280
     0
102
RTVSPost2010PropOp28
 70
     0
102
RTVSPost2010Prop29
280
     1
102
RTVSPost2010PropOp29
 70
     0
102
RTVSPost2010Prop30
280
     1
102
RTVSPost2010PropOp30
 70
     0
102
RTVSPost2010Prop31
280
     0
102
RTVSPost2010PropOp31
 70
     0
102
RTVSPost2010Prop32
280
     0
102
RTVSPost2010PropOp32
 70
     0
102
RTVSPost2010Prop33
280
     0
102
RTVSPost2010PropOp33
 70
     0
102
RTVSPost2010Prop34
280
     0
102
RTVSPost2010PropOp34
 70
     0
102
RTVSPost2010Prop35
280
     0
102
RTVSPost2010PropOp35
 70
     0
102
RTVSPost2010Prop36
280
     0
102
RTVSPost2010PropOp36
 70
     0
102
RTVSPost2010Prop37
 90
       50
102
RTVSPost2010PropOp37
 70
     0
102
RTVSPost2010Prop38
140
0.0
102
RTVSPost2010PropOp38
 70
     0
102
RTVSPost2010Prop39
140
1.0
102
RTVSPost2010PropOp39
 70
     0
102
RTVSPost2010Prop40
 90
        0
102
RTVSPost2010PropOp40
 70
     0
102
RTVSPost2010Prop41ColorIndex
 90
       18
102
RTVSPost2010Prop41ColorRGB
 90
        0
102
RTVSPost2010PropOp41
 70
     0
102
RTVSPost2010Prop42
 90
       50
102
RTVSPost2010PropOp42
 70
     0
102
RTVSPost2010Prop43
 90
        3
102
RTVSPost2010PropOp43
 70
     0
102
RTVSPost2010Prop44ColorIndex
 90
        5
102
RTVSPost2010Prop44ColorRGB
 90
      255
102
RTVSPost2010PropOp44
 70
     0
102
RTVSPost2010Prop45
280
     0
102
RTVSPost2010PropOp45
 70
     0
102
RTVSPost2010Prop46
 90
       50
102
RTVSPost2010PropOp46
 70
     0
102
RTVSPost2010Prop47
 90
       50
102
RTVSPost2010PropOp47
 70
     0
102
RTVSPost2010Prop48
 90
       50
102
RTVSPost2010PropOp48
 70
     0
102
RTVSPost2010Prop49
280
     0
102
RTVSPost2010PropOp49
 70
     0
102
RTVSPost2010Prop50
 90
       50
102
RTVSPost2010PropOp50
 70
     0
102
RTVSPost2010Prop51ColorIndex
 90
      256
102
RTVSPost2010Prop51ColorRGB
 90
-16777216
102
RTVSPost2010PropOp51
 70
     0
102
RTVSPost2010Prop52
140
1.0
102
RTVSPost2010PropOp52
 70
     0
102
RTVSPost2010Prop53
 90
        2
102
RTVSPost2010PropOp53
 70
     0
102
RTVSPost2010Prop54
  1
strokes_ogs.tif
102
RTVSPost2010PropOp54
 70
     0
102
RTVSPost2010Prop55
280
     0
102
RTVSPost2010PropOp55
 70
     0
102
RTVSPost2010Prop56
140
1.0
102
RTVSPost2010PropOp56
 70
     0
102
RTVSPost2010Prop57
140
1.0
102
RTVSPost2010PropOp57
 70
     0
102
RTVSPropertyOp0
 70
     0
102
RTVSPropertyOp1
 70
     0
102
RTVSPropertyOp2
 70
     0
102
RTVSPropertyOp3
 70
     0
102
RTVSPropertyOp4
 70
     0
102
RTVSPropertyOp5
 70
     0
102
RTVSPropertyOp6
 70
     0
102
RTVSPropertyOp7
 70
     0
102
RTVSPropertyOp8
 70
     0
102
RTVSPropertyOp9
 70
     0
102
RTVSPropertyOp10
 70
     0
102
RTVSPropertyOp11
 70
     0
102
RTVSPropertyOp12
 70
     0
102
RTVSPropertyOp13
 70
     0
102
RTVSPropertyOp14
 70
     2
102
RTVSPropertyOp15
 70
     0
102
RTVSPropertyOp16
 70
     0
102
RTVSPropertyOp17
 70
     0
102
RTVSPropertyOp18
 70
     0
102
RTVSPropertyOp19
 70
     0
102
RTVSPropertyOp20
 70
     0
102
RTVSPropertyOp21
 70
     0
102
RTVSPropertyOp22
 70
     0
102
RTVSPropertyOp23
 70
     0
102
RTVSPropertyOp24
 70
     0
102
RTVSPropertyOp25
 70
     0
102
RTVSPropertyOp26
 70
     0
102
RTVSPropertyOp27
 70
     0
102
RTVSPropertyOp28
 70
     0
102
RTVSPropertyOp29
 70
     0
102
RTVSPropertyOp30
 70
     0
102
RTVSPropertyOp31
 70
     0
102
RTVSPropertyOp32
 70
     0
102
RTVSPropertyOp33
 70
     0
102
RTVSPropertyOp34
 70
     0
102
RTVSPropertyOp35
 70
     0
102
RTVSPropertyOp36
 70
     0
102
RTVSPropertyOp37
 70
     0
102
RTVSPropertyOp38
 70
     0
102
RTVSPropertyOp39
 70
     0
102
RTVSPropertyOp40
 70
     0
102
RTVSPropertyOp41
 70
     0
102
RTVSPropertyOp42
 70
     0
102
RTVSPropertyOp43
 70
     0
102
RTVSPropertyOp44
 70
     0
102
RTVSPropertyOp45
 70
     0
102
RTVSPropertyOp46
 70
     0
102
RTVSPropertyOp47
 70
     0
102
RTVSPropertyOp48
 70
     0
102
RTVSPropertyOp49
 70
     0
102
RTVSPropertyOp50
 70
     0
102
RTVSPropertyOp51
 70
     0
102
RTVSPropertyOp52
 70
     0
102
RTVSPropertyOp53
 70
     0
102
RTVSPropertyOp54
 70
     0
102
RTVSPropertyOp55
 70
     0
102
RTVSPropertyOp56
 70
     0
102
RTVSPropertyOp57
 70
     0
102
RTVSPropertyOp58
 70
     0
102
RTVSPropertyOp59
 70
     0
102
RTVSPropertyOp60
 70
     0
102
RTVSPropertyOp61
 70
     0
102
RTVSPropertyOp62
 70
     0
  0
XRECORD
  5
103F0
102
{ACAD_REACTORS
330
103EF
102
}
330
103EF
100
AcDbXrecord
280
     1
102
RTVSPost2010Prop28
280
     0
102
RTVSPost2010PropOp28
 70
     1
102
RTVSPost2010Prop29
280
     1
102
RTVSPost2010PropOp29
 70
     1
102
RTVSPost2010Prop30
280
     1
102
RTVSPost2010PropOp30
 70
     1
102
RTVSPost2010Prop31
280
     0
102
RTVSPost2010PropOp31
 70
     1
102
RTVSPost2010Prop32
280
     0
102
RTVSPost2010PropOp32
 70
     1
102
RTVSPost2010Prop33
280
     0
102
RTVSPost2010PropOp33
 70
     1
102
RTVSPost2010Prop34
280
     0
102
RTVSPost2010PropOp34
 70
     1
102
RTVSPost2010Prop35
280
     0
102
RTVSPost2010PropOp35
 70
     1
102
RTVSPost2010Prop36
280
     0
102
RTVSPost2010PropOp36
 70
     1
102
RTVSPost2010Prop37
 90
       50
102
RTVSPost2010PropOp37
 70
     1
102
RTVSPost2010Prop38
140
0.0
102
RTVSPost2010PropOp38
 70
     1
102
RTVSPost2010Prop39
140
1.0
102
RTVSPost2010PropOp39
 70
     1
102
RTVSPost2010Prop40
 90
        0
102
RTVSPost2010PropOp40
 70
     1
102
RTVSPost2010Prop41ColorIndex
 90
       18
102
RTVSPost2010Prop41ColorRGB
 90
        0
102
RTVSPost2010PropOp41
 70
     1
102
RTVSPost2010Prop42
 90
       50
102
RTVSPost2010PropOp42
 70
     1
102
RTVSPost2010Prop43
 90
        3
102
RTVSPost2010PropOp43
 70
     1
102
RTVSPost2010Prop44ColorIndex
 90
        5
102
RTVSPost2010Prop44ColorRGB
 90
      255
102
RTVSPost2010PropOp44
 70
     1
102
RTVSPost2010Prop45
280
     0
102
RTVSPost2010PropOp45
 70
     1
102
RTVSPost2010Prop46
 90
       50
102
RTVSPost2010PropOp46
 70
     1
102
RTVSPost2010Prop47
 90
       50
102
RTVSPost2010PropOp47
 70
     1
102
RTVSPost2010Prop48
 90
       50
102
RTVSPost2010PropOp48
 70
     1
102
RTVSPost2010Prop49
280
     0
102
RTVSPost2010PropOp49
 70
     1
102
RTVSPost2010Prop50
 90
       50
102
RTVSPost2010PropOp50
 70
     1
102
RTVSPost2010Prop51ColorIndex
 90
      256
102
RTVSPost2010Prop51ColorRGB
 90
-16777216
102
RTVSPost2010PropOp51
 70
     0
102
RTVSPost2010Prop52
140
1.0
102
RTVSPost2010PropOp52
 70
     0
102
RTVSPost2010Prop53
 90
        2
102
RTVSPost2010PropOp53
 70
     1
102
RTVSPost2010Prop54
  1
strokes_ogs.tif
102
RTVSPost2010PropOp54
 70
     1
102
RTVSPost2010Prop55
280
     0
102
RTVSPost2010PropOp55
 70
     1
102
RTVSPost2010Prop56
140
1.0
102
RTVSPost2010PropOp56
 70
     1
102
RTVSPost2010Prop57
140
1.0
102
RTVSPost2010PropOp57
 70
     1
102
RTVSPropertyOp0
 70
     1
102
RTVSPropertyOp1
 70
     1
102
RTVSPropertyOp2
 70
     1
102
RTVSPropertyOp3
 70
     1
102
RTVSPropertyOp4
 70
     1
102
RTVSPropertyOp5
 70
     1
102
RTVSPropertyOp6
 70
     1
102
RTVSPropertyOp7
 70
     1
102
RTVSPropertyOp8
 70
     1
102
RTVSPropertyOp9
 70
     1
102
RTVSPropertyOp10
 70
     1
102
RTVSPropertyOp11
 70
     1
102
RTVSPropertyOp12
 70
     1
102
RTVSPropertyOp13
 70
     1
102
RTVSPropertyOp14
 70
     1
102
RTVSPropertyOp15
 70
     1
102
RTVSPropertyOp16
 70
     1
102
RTVSPropertyOp17
 70
     1
102
RTVSPropertyOp18
 70
     1
102
RTVSPropertyOp19
 70
     1
102
RTVSPropertyOp20
 70
     1
102
RTVSPropertyOp21
 70
     1
102
RTVSPropertyOp22
 70
     1
102
RTVSPropertyOp23
 70
     1
102
RTVSPropertyOp24
 70
     1
102
RTVSPropertyOp25
 70
     1
102
RTVSPropertyOp26
 70
     1
102
RTVSPropertyOp27
 70
     1
102
RTVSPropertyOp28
 70
     1
102
RTVSPropertyOp29
 70
     1
102
RTVSPropertyOp30
 70
     1
102
RTVSPropertyOp31
 70
     1
102
RTVSPropertyOp32
 70
     1
102
RTVSPropertyOp33
 70
     1
102
RTVSPropertyOp34
 70
     1
102
RTVSPropertyOp35
 70
     1
102
RTVSPropertyOp36
 70
     1
102
RTVSPropertyOp37
 70
     1
102
RTVSPropertyOp38
 70
     1
102
RTVSPropertyOp39
 70
     1
102
RTVSPropertyOp40
 70
     1
102
RTVSPropertyOp41
 70
     1
102
RTVSPropertyOp42
 70
     1
102
RTVSPropertyOp43
 70
     1
102
RTVSPropertyOp44
 70
     1
102
RTVSPropertyOp45
 70
     1
102
RTVSPropertyOp46
 70
     1
102
RTVSPropertyOp47
 70
     1
102
RTVSPropertyOp48
 70
     1
102
RTVSPropertyOp49
 70
     1
102
RTVSPropertyOp50
 70
     1
102
RTVSPropertyOp51
 70
     0
102
RTVSPropertyOp52
 70
     0
102
RTVSPropertyOp53
 70
     1
102
RTVSPropertyOp54
 70
     1
102
RTVSPropertyOp55
 70
     1
102
RTVSPropertyOp56
 70
     1
102
RTVSPropertyOp57
 70
     1
102
RTVSPropertyOp58
 70
     1
102
RTVSPropertyOp59
 70
     1
102
RTVSPropertyOp60
 70
     1
102
RTVSPropertyOp61
 70
     1
102
RTVSPropertyOp62
 70
     1
  0
XRECORD
  5
10410
102
{ACAD_REACTORS
330
1040F
102
}
330
1040F
100
AcDbXrecord
280
     1
102
RTVSPost2010Prop28
280
     0
102
RTVSPost2010PropOp28
 70
     1
102
RTVSPost2010Prop29
280
     1
102
RTVSPost2010PropOp29
 70
     1
102
RTVSPost2010Prop30
280
     1
102
RTVSPost2010PropOp30
 70
     1
102
RTVSPost2010Prop31
280
     0
102
RTVSPost2010PropOp31
 70
     1
102
RTVSPost2010Prop32
280
     0
102
RTVSPost2010PropOp32
 70
     1
102
RTVSPost2010Prop33
280
     0
102
RTVSPost2010PropOp33
 70
     1
102
RTVSPost2010Prop34
280
     0
102
RTVSPost2010PropOp34
 70
     1
102
RTVSPost2010Prop35
280
     0
102
RTVSPost2010PropOp35
 70
     1
102
RTVSPost2010Prop36
280
     0
102
RTVSPost2010PropOp36
 70
     1
102
RTVSPost2010Prop37
 90
       50
102
RTVSPost2010PropOp37
 70
     1
102
RTVSPost2010Prop38
140
0.0
102
RTVSPost2010PropOp38
 70
     1
102
RTVSPost2010Prop39
140
1.0
102
RTVSPost2010PropOp39
 70
     1
102
RTVSPost2010Prop40
 90
        0
102
RTVSPost2010PropOp40
 70
     1
102
RTVSPost2010Prop41ColorIndex
 90
       18
102
RTVSPost2010Prop41ColorRGB
 90
        0
102
RTVSPost2010PropOp41
 70
     1
102
RTVSPost2010Prop42
 90
       50
102
RTVSPost2010PropOp42
 70
     1
102
RTVSPost2010Prop43
 90
        3
102
RTVSPost2010PropOp43
 70
     1
102
RTVSPost2010Prop44ColorIndex
 90
        5
102
RTVSPost2010Prop44ColorRGB
 90
      255
102
RTVSPost2010PropOp44
 70
     1
102
RTVSPost2010Prop45
280
     0
102
RTVSPost2010PropOp45
 70
     1
102
RTVSPost2010Prop46
 90
       50
102
RTVSPost2010PropOp46
 70
     1
102
RTVSPost2010Prop47
 90
       50
102
RTVSPost2010PropOp47
 70
     1
102
RTVSPost2010Prop48
 90
       50
102
RTVSPost2010PropOp48
 70
     1
102
RTVSPost2010Prop49
280
     0
102
RTVSPost2010PropOp49
 70
     1
102
RTVSPost2010Prop50
 90
       50
102
RTVSPost2010PropOp50
 70
     1
102
RTVSPost2010Prop51ColorIndex
 90
      256
102
RTVSPost2010Prop51ColorRGB
 90
-16777216
102
RTVSPost2010PropOp51
 70
     0
102
RTVSPost2010Prop52
140
1.0
102
RTVSPost2010PropOp52
 70
     0
102
RTVSPost2010Prop53
 90
        2
102
RTVSPost2010PropOp53
 70
     1
102
RTVSPost2010Prop54
  1
strokes_ogs.tif
102
RTVSPost2010PropOp54
 70
     1
102
RTVSPost2010Prop55
280
     0
102
RTVSPost2010PropOp55
 70
     1
102
RTVSPost2010Prop56
140
1.0
102
RTVSPost2010PropOp56
 70
     1
102
RTVSPost2010Prop57
140
1.0
102
RTVSPost2010PropOp57
 70
     1
102
RTVSPropertyOp0
 70
     1
102
RTVSPropertyOp1
 70
     1
102
RTVSPropertyOp2
 70
     1
102
RTVSPropertyOp3
 70
     1
102
RTVSPropertyOp4
 70
     1
102
RTVSPropertyOp5
 70
     1
102
RTVSPropertyOp6
 70
     1
102
RTVSPropertyOp7
 70
     1
102
RTVSPropertyOp8
 70
     1
102
RTVSPropertyOp9
 70
     1
102
RTVSPropertyOp10
 70
     1
102
RTVSPropertyOp11
 70
     1
102
RTVSPropertyOp12
 70
     1
102
RTVSPropertyOp13
 70
     1
102
RTVSPropertyOp14
 70
     1
102
RTVSPropertyOp15
 70
     1
102
RTVSPropertyOp16
 70
     1
102
RTVSPropertyOp17
 70
     1
102
RTVSPropertyOp18
 70
     1
102
RTVSPropertyOp19
 70
     1
102
RTVSPropertyOp20
 70
     1
102
RTVSPropertyOp21
 70
     1
102
RTVSPropertyOp22
 70
     1
102
RTVSPropertyOp23
 70
     1
102
RTVSPropertyOp24
 70
     1
102
RTVSPropertyOp25
 70
     1
102
RTVSPropertyOp26
 70
     1
102
RTVSPropertyOp27
 70
     1
102
RTVSPropertyOp28
 70
     1
102
RTVSPropertyOp29
 70
     1
102
RTVSPropertyOp30
 70
     1
102
RTVSPropertyOp31
 70
     1
102
RTVSPropertyOp32
 70
     1
102
RTVSPropertyOp33
 70
     1
102
RTVSPropertyOp34
 70
     1
102
RTVSPropertyOp35
 70
     1
102
RTVSPropertyOp36
 70
     1
102
RTVSPropertyOp37
 70
     1
102
RTVSPropertyOp38
 70
     1
102
RTVSPropertyOp39
 70
     1
102
RTVSPropertyOp40
 70
     1
102
RTVSPropertyOp41
 70
     1
102
RTVSPropertyOp42
 70
     1
102
RTVSPropertyOp43
 70
     1
102
RTVSPropertyOp44
 70
     1
102
RTVSPropertyOp45
 70
     1
102
RTVSPropertyOp46
 70
     1
102
RTVSPropertyOp47
 70
     1
102
RTVSPropertyOp48
 70
     1
102
RTVSPropertyOp49
 70
     1
102
RTVSPropertyOp50
 70
     1
102
RTVSPropertyOp51
 70
     0
102
RTVSPropertyOp52
 70
     0
102
RTVSPropertyOp53
 70
     1
102
RTVSPropertyOp54
 70
     1
102
RTVSPropertyOp55
 70
     1
102
RTVSPropertyOp56
 70
     1
102
RTVSPropertyOp57
 70
     1
102
RTVSPropertyOp58
 70
     1
102
RTVSPropertyOp59
 70
     1
102
RTVSPropertyOp60
 70
     1
102
RTVSPropertyOp61
 70
     1
102
RTVSPropertyOp62
 70
     1
  0
XRECORD
  5
1040E
102
{ACAD_REACTORS
330
1040D
102
}
330
1040D
100
AcDbXrecord
280
     1
102
RTVSPost2010Prop28
280
     0
102
RTVSPost2010PropOp28
 70
     1
102
RTVSPost2010Prop29
280
     1
102
RTVSPost2010PropOp29
 70
     1
102
RTVSPost2010Prop30
280
     1
102
RTVSPost2010PropOp30
 70
     1
102
RTVSPost2010Prop31
280
     0
102
RTVSPost2010PropOp31
 70
     1
102
RTVSPost2010Prop32
280
     0
102
RTVSPost2010PropOp32
 70
     1
102
RTVSPost2010Prop33
280
     0
102
RTVSPost2010PropOp33
 70
     1
102
RTVSPost2010Prop34
280
     0
102
RTVSPost2010PropOp34
 70
     1
102
RTVSPost2010Prop35
280
     0
102
RTVSPost2010PropOp35
 70
     1
102
RTVSPost2010Prop36
280
     0
102
RTVSPost2010PropOp36
 70
     1
102
RTVSPost2010Prop37
 90
       50
102
RTVSPost2010PropOp37
 70
     1
102
RTVSPost2010Prop38
140
0.0
102
RTVSPost2010PropOp38
 70
     1
102
RTVSPost2010Prop39
140
1.0
102
RTVSPost2010PropOp39
 70
     1
102
RTVSPost2010Prop40
 90
        0
102
RTVSPost2010PropOp40
 70
     1
102
RTVSPost2010Prop41ColorIndex
 90
       18
102
RTVSPost2010Prop41ColorRGB
 90
        0
102
RTVSPost2010PropOp41
 70
     1
102
RTVSPost2010Prop42
 90
       50
102
RTVSPost2010PropOp42
 70
     1
102
RTVSPost2010Prop43
 90
        3
102
RTVSPost2010PropOp43
 70
     1
102
RTVSPost2010Prop44ColorIndex
 90
        5
102
RTVSPost2010Prop44ColorRGB
 90
      255
102
RTVSPost2010PropOp44
 70
     1
102
RTVSPost2010Prop45
280
     0
102
RTVSPost2010PropOp45
 70
     1
102
RTVSPost2010Prop46
 90
       50
102
RTVSPost2010PropOp46
 70
     1
102
RTVSPost2010Prop47
 90
       50
102
RTVSPost2010PropOp47
 70
     1
102
RTVSPost2010Prop48
 90
       50
102
RTVSPost2010PropOp48
 70
     1
102
RTVSPost2010Prop49
280
     0
102
RTVSPost2010PropOp49
 70
     1
102
RTVSPost2010Prop50
 90
       50
102
RTVSPost2010PropOp50
 70
     1
102
RTVSPost2010Prop51ColorIndex
 90
      256
102
RTVSPost2010Prop51ColorRGB
 90
-16777216
102
RTVSPost2010PropOp51
 70
     0
102
RTVSPost2010Prop52
140
1.0
102
RTVSPost2010PropOp52
 70
     0
102
RTVSPost2010Prop53
 90
        2
102
RTVSPost2010PropOp53
 70
     1
102
RTVSPost2010Prop54
  1
strokes_ogs.tif
102
RTVSPost2010PropOp54
 70
     1
102
RTVSPost2010Prop55
280
     0
102
RTVSPost2010PropOp55
 70
     1
102
RTVSPost2010Prop56
140
1.0
102
RTVSPost2010PropOp56
 70
     1
102
RTVSPost2010Prop57
140
1.0
102
RTVSPost2010PropOp57
 70
     1
102
RTVSPropertyOp0
 70
     1
102
RTVSPropertyOp1
 70
     1
102
RTVSPropertyOp2
 70
     1
102
RTVSPropertyOp3
 70
     1
102
RTVSPropertyOp4
 70
     1
102
RTVSPropertyOp5
 70
     1
102
RTVSPropertyOp6
 70
     1
102
RTVSPropertyOp7
 70
     1
102
RTVSPropertyOp8
 70
     1
102
RTVSPropertyOp9
 70
     1
102
RTVSPropertyOp10
 70
     1
102
RTVSPropertyOp11
 70
     1
102
RTVSPropertyOp12
 70
     1
102
RTVSPropertyOp13
 70
     1
102
RTVSPropertyOp14
 70
     1
102
RTVSPropertyOp15
 70
     1
102
RTVSPropertyOp16
 70
     1
102
RTVSPropertyOp17
 70
     1
102
RTVSPropertyOp18
 70
     1
102
RTVSPropertyOp19
 70
     1
102
RTVSPropertyOp20
 70
     1
102
RTVSPropertyOp21
 70
     1
102
RTVSPropertyOp22
 70
     1
102
RTVSPropertyOp23
 70
     1
102
RTVSPropertyOp24
 70
     1
102
RTVSPropertyOp25
 70
     1
102
RTVSPropertyOp26
 70
     1
102
RTVSPropertyOp27
 70
     1
102
RTVSPropertyOp28
 70
     1
102
RTVSPropertyOp29
 70
     1
102
RTVSPropertyOp30
 70
     1
102
RTVSPropertyOp31
 70
     1
102
RTVSPropertyOp32
 70
     1
102
RTVSPropertyOp33
 70
     1
102
RTVSPropertyOp34
 70
     1
102
RTVSPropertyOp35
 70
     1
102
RTVSPropertyOp36
 70
     1
102
RTVSPropertyOp37
 70
     1
102
RTVSPropertyOp38
 70
     1
102
RTVSPropertyOp39
 70
     1
102
RTVSPropertyOp40
 70
     1
102
RTVSPropertyOp41
 70
     1
102
RTVSPropertyOp42
 70
     1
102
RTVSPropertyOp43
 70
     1
102
RTVSPropertyOp44
 70
     1
102
RTVSPropertyOp45
 70
     1
102
RTVSPropertyOp46
 70
     1
102
RTVSPropertyOp47
 70
     1
102
RTVSPropertyOp48
 70
     1
102
RTVSPropertyOp49
 70
     1
102
RTVSPropertyOp50
 70
     1
102
RTVSPropertyOp51
 70
     0
102
RTVSPropertyOp52
 70
     0
102
RTVSPropertyOp53
 70
     1
102
RTVSPropertyOp54
 70
     1
102
RTVSPropertyOp55
 70
     1
102
RTVSPropertyOp56
 70
     1
102
RTVSPropertyOp57
 70
     1
102
RTVSPropertyOp58
 70
     1
102
RTVSPropertyOp59
 70
     1
102
RTVSPropertyOp60
 70
     1
102
RTVSPropertyOp61
 70
     1
102
RTVSPropertyOp62
 70
     1
  0
XRECORD
  5
10408
102
{ACAD_REACTORS
330
10407
102
}
330
10407
100
AcDbXrecord
280
     1
102
RTVSPost2010Prop28
280
     0
102
RTVSPost2010PropOp28
 70
     1
102
RTVSPost2010Prop29
280
     1
102
RTVSPost2010PropOp29
 70
     1
102
RTVSPost2010Prop30
280
     1
102
RTVSPost2010PropOp30
 70
     1
102
RTVSPost2010Prop31
280
     0
102
RTVSPost2010PropOp31
 70
     1
102
RTVSPost2010Prop32
280
     0
102
RTVSPost2010PropOp32
 70
     1
102
RTVSPost2010Prop33
280
     0
102
RTVSPost2010PropOp33
 70
     1
102
RTVSPost2010Prop34
280
     0
102
RTVSPost2010PropOp34
 70
     1
102
RTVSPost2010Prop35
280
     0
102
RTVSPost2010PropOp35
 70
     1
102
RTVSPost2010Prop36
280
     0
102
RTVSPost2010PropOp36
 70
     1
102
RTVSPost2010Prop37
 90
       50
102
RTVSPost2010PropOp37
 70
     1
102
RTVSPost2010Prop38
140
0.0
102
RTVSPost2010PropOp38
 70
     1
102
RTVSPost2010Prop39
140
1.0
102
RTVSPost2010PropOp39
 70
     1
102
RTVSPost2010Prop40
 90
        0
102
RTVSPost2010PropOp40
 70
     1
102
RTVSPost2010Prop41ColorIndex
 90
       18
102
RTVSPost2010Prop41ColorRGB
 90
        0
102
RTVSPost2010PropOp41
 70
     1
102
RTVSPost2010Prop42
 90
       50
102
RTVSPost2010PropOp42
 70
     1
102
RTVSPost2010Prop43
 90
        3
102
RTVSPost2010PropOp43
 70
     1
102
RTVSPost2010Prop44ColorIndex
 90
        5
102
RTVSPost2010Prop44ColorRGB
 90
      255
102
RTVSPost2010PropOp44
 70
     1
102
RTVSPost2010Prop45
280
     0
102
RTVSPost2010PropOp45
 70
     1
102
RTVSPost2010Prop46
 90
       50
102
RTVSPost2010PropOp46
 70
     1
102
RTVSPost2010Prop47
 90
       50
102
RTVSPost2010PropOp47
 70
     1
102
RTVSPost2010Prop48
 90
       50
102
RTVSPost2010PropOp48
 70
     1
102
RTVSPost2010Prop49
280
     0
102
RTVSPost2010PropOp49
 70
     1
102
RTVSPost2010Prop50
 90
       50
102
RTVSPost2010PropOp50
 70
     1
102
RTVSPost2010Prop51ColorIndex
 90
      256
102
RTVSPost2010Prop51ColorRGB
 90
-16777216
102
RTVSPost2010PropOp51
 70
     0
102
RTVSPost2010Prop52
140
1.0
102
RTVSPost2010PropOp52
 70
     0
102
RTVSPost2010Prop53
 90
        2
102
RTVSPost2010PropOp53
 70
     1
102
RTVSPost2010Prop54
  1
strokes_ogs.tif
102
RTVSPost2010PropOp54
 70
     1
102
RTVSPost2010Prop55
280
     0
102
RTVSPost2010PropOp55
 70
     1
102
RTVSPost2010Prop56
140
1.0
102
RTVSPost2010PropOp56
 70
     1
102
RTVSPost2010Prop57
140
1.0
102
RTVSPost2010PropOp57
 70
     1
102
RTVSPropertyOp0
 70
     1
102
RTVSPropertyOp1
 70
     1
102
RTVSPropertyOp2
 70
     1
102
RTVSPropertyOp3
 70
     1
102
RTVSPropertyOp4
 70
     1
102
RTVSPropertyOp5
 70
     1
102
RTVSPropertyOp6
 70
     1
102
RTVSPropertyOp7
 70
     1
102
RTVSPropertyOp8
 70
     1
102
RTVSPropertyOp9
 70
     1
102
RTVSPropertyOp10
 70
     1
102
RTVSPropertyOp11
 70
     1
102
RTVSPropertyOp12
 70
     1
102
RTVSPropertyOp13
 70
     1
102
RTVSPropertyOp14
 70
     1
102
RTVSPropertyOp15
 70
     1
102
RTVSPropertyOp16
 70
     1
102
RTVSPropertyOp17
 70
     1
102
RTVSPropertyOp18
 70
     1
102
RTVSPropertyOp19
 70
     1
102
RTVSPropertyOp20
 70
     1
102
RTVSPropertyOp21
 70
     1
102
RTVSPropertyOp22
 70
     1
102
RTVSPropertyOp23
 70
     1
102
RTVSPropertyOp24
 70
     1
102
RTVSPropertyOp25
 70
     1
102
RTVSPropertyOp26
 70
     1
102
RTVSPropertyOp27
 70
     1
102
RTVSPropertyOp28
 70
     1
102
RTVSPropertyOp29
 70
     1
102
RTVSPropertyOp30
 70
     1
102
RTVSPropertyOp31
 70
     1
102
RTVSPropertyOp32
 70
     1
102
RTVSPropertyOp33
 70
     1
102
RTVSPropertyOp34
 70
     1
102
RTVSPropertyOp35
 70
     1
102
RTVSPropertyOp36
 70
     1
102
RTVSPropertyOp37
 70
     1
102
RTVSPropertyOp38
 70
     1
102
RTVSPropertyOp39
 70
     1
102
RTVSPropertyOp40
 70
     1
102
RTVSPropertyOp41
 70
     1
102
RTVSPropertyOp42
 70
     1
102
RTVSPropertyOp43
 70
     1
102
RTVSPropertyOp44
 70
     1
102
RTVSPropertyOp45
 70
     1
102
RTVSPropertyOp46
 70
     1
102
RTVSPropertyOp47
 70
     1
102
RTVSPropertyOp48
 70
     1
102
RTVSPropertyOp49
 70
     1
102
RTVSPropertyOp50
 70
     1
102
RTVSPropertyOp51
 70
     0
102
RTVSPropertyOp52
 70
     0
102
RTVSPropertyOp53
 70
     1
102
RTVSPropertyOp54
 70
     1
102
RTVSPropertyOp55
 70
     1
102
RTVSPropertyOp56
 70
     1
102
RTVSPropertyOp57
 70
     1
102
RTVSPropertyOp58
 70
     1
102
RTVSPropertyOp59
 70
     1
102
RTVSPropertyOp60
 70
     1
102
RTVSPropertyOp61
 70
     1
102
RTVSPropertyOp62
 70
     1
  0
XRECORD
  5
1040A
102
{ACAD_REACTORS
330
10409
102
}
330
10409
100
AcDbXrecord
280
     1
102
RTVSPost2010Prop28
280
     0
102
RTVSPost2010PropOp28
 70
     1
102
RTVSPost2010Prop29
280
     1
102
RTVSPost2010PropOp29
 70
     1
102
RTVSPost2010Prop30
280
     1
102
RTVSPost2010PropOp30
 70
     1
102
RTVSPost2010Prop31
280
     0
102
RTVSPost2010PropOp31
 70
     1
102
RTVSPost2010Prop32
280
     0
102
RTVSPost2010PropOp32
 70
     1
102
RTVSPost2010Prop33
280
     0
102
RTVSPost2010PropOp33
 70
     1
102
RTVSPost2010Prop34
280
     0
102
RTVSPost2010PropOp34
 70
     1
102
RTVSPost2010Prop35
280
     0
102
RTVSPost2010PropOp35
 70
     1
102
RTVSPost2010Prop36
280
     0
102
RTVSPost2010PropOp36
 70
     1
102
RTVSPost2010Prop37
 90
       50
102
RTVSPost2010PropOp37
 70
     1
102
RTVSPost2010Prop38
140
0.0
102
RTVSPost2010PropOp38
 70
     1
102
RTVSPost2010Prop39
140
1.0
102
RTVSPost2010PropOp39
 70
     1
102
RTVSPost2010Prop40
 90
        0
102
RTVSPost2010PropOp40
 70
     1
102
RTVSPost2010Prop41ColorIndex
 90
       18
102
RTVSPost2010Prop41ColorRGB
 90
        0
102
RTVSPost2010PropOp41
 70
     1
102
RTVSPost2010Prop42
 90
       50
102
RTVSPost2010PropOp42
 70
     1
102
RTVSPost2010Prop43
 90
        3
102
RTVSPost2010PropOp43
 70
     1
102
RTVSPost2010Prop44ColorIndex
 90
        5
102
RTVSPost2010Prop44ColorRGB
 90
      255
102
RTVSPost2010PropOp44
 70
     1
102
RTVSPost2010Prop45
280
     0
102
RTVSPost2010PropOp45
 70
     1
102
RTVSPost2010Prop46
 90
       50
102
RTVSPost2010PropOp46
 70
     1
102
RTVSPost2010Prop47
 90
       50
102
RTVSPost2010PropOp47
 70
     1
102
RTVSPost2010Prop48
 90
       50
102
RTVSPost2010PropOp48
 70
     1
102
RTVSPost2010Prop49
280
     0
102
RTVSPost2010PropOp49
 70
     1
102
RTVSPost2010Prop50
 90
       50
102
RTVSPost2010PropOp50
 70
     1
102
RTVSPost2010Prop51ColorIndex
 90
      256
102
RTVSPost2010Prop51ColorRGB
 90
-16777216
102
RTVSPost2010PropOp51
 70
     0
102
RTVSPost2010Prop52
140
1.0
102
RTVSPost2010PropOp52
 70
     0
102
RTVSPost2010Prop53
 90
        2
102
RTVSPost2010PropOp53
 70
     1
102
RTVSPost2010Prop54
  1
strokes_ogs.tif
102
RTVSPost2010PropOp54
 70
     1
102
RTVSPost2010Prop55
280
     0
102
RTVSPost2010PropOp55
 70
     1
102
RTVSPost2010Prop56
140
1.0
102
RTVSPost2010PropOp56
 70
     1
102
RTVSPost2010Prop57
140
1.0
102
RTVSPost2010PropOp57
 70
     1
102
RTVSPropertyOp0
 70
     1
102
RTVSPropertyOp1
 70
     1
102
RTVSPropertyOp2
 70
     1
102
RTVSPropertyOp3
 70
     1
102
RTVSPropertyOp4
 70
     1
102
RTVSPropertyOp5
 70
     1
102
RTVSPropertyOp6
 70
     1
102
RTVSPropertyOp7
 70
     1
102
RTVSPropertyOp8
 70
     1
102
RTVSPropertyOp9
 70
     1
102
RTVSPropertyOp10
 70
     1
102
RTVSPropertyOp11
 70
     1
102
RTVSPropertyOp12
 70
     1
102
RTVSPropertyOp13
 70
     1
102
RTVSPropertyOp14
 70
     1
102
RTVSPropertyOp15
 70
     1
102
RTVSPropertyOp16
 70
     1
102
RTVSPropertyOp17
 70
     1
102
RTVSPropertyOp18
 70
     1
102
RTVSPropertyOp19
 70
     1
102
RTVSPropertyOp20
 70
     1
102
RTVSPropertyOp21
 70
     1
102
RTVSPropertyOp22
 70
     1
102
RTVSPropertyOp23
 70
     1
102
RTVSPropertyOp24
 70
     1
102
RTVSPropertyOp25
 70
     1
102
RTVSPropertyOp26
 70
     1
102
RTVSPropertyOp27
 70
     1
102
RTVSPropertyOp28
 70
     1
102
RTVSPropertyOp29
 70
     1
102
RTVSPropertyOp30
 70
     1
102
RTVSPropertyOp31
 70
     1
102
RTVSPropertyOp32
 70
     1
102
RTVSPropertyOp33
 70
     1
102
RTVSPropertyOp34
 70
     1
102
RTVSPropertyOp35
 70
     1
102
RTVSPropertyOp36
 70
     1
102
RTVSPropertyOp37
 70
     1
102
RTVSPropertyOp38
 70
     1
102
RTVSPropertyOp39
 70
     1
102
RTVSPropertyOp40
 70
     1
102
RTVSPropertyOp41
 70
     1
102
RTVSPropertyOp42
 70
     1
102
RTVSPropertyOp43
 70
     1
102
RTVSPropertyOp44
 70
     1
102
RTVSPropertyOp45
 70
     1
102
RTVSPropertyOp46
 70
     1
102
RTVSPropertyOp47
 70
     1
102
RTVSPropertyOp48
 70
     1
102
RTVSPropertyOp49
 70
     1
102
RTVSPropertyOp50
 70
     1
102
RTVSPropertyOp51
 70
     0
102
RTVSPropertyOp52
 70
     0
102
RTVSPropertyOp53
 70
     1
102
RTVSPropertyOp54
 70
     1
102
RTVSPropertyOp55
 70
     1
102
RTVSPropertyOp56
 70
     1
102
RTVSPropertyOp57
 70
     1
102
RTVSPropertyOp58
 70
     1
102
RTVSPropertyOp59
 70
     1
102
RTVSPropertyOp60
 70
     1
102
RTVSPropertyOp61
 70
     1
102
RTVSPropertyOp62
 70
     1
  0
XRECORD
  5
103F6
102
{ACAD_REACTORS
330
103F5
102
}
330
103F5
100
AcDbXrecord
280
     1
102
RTVSPost2010Prop28
280
     0
102
RTVSPost2010PropOp28
 70
     1
102
RTVSPost2010Prop29
280
     1
102
RTVSPost2010PropOp29
 70
     1
102
RTVSPost2010Prop30
280
     1
102
RTVSPost2010PropOp30
 70
     1
102
RTVSPost2010Prop31
280
     0
102
RTVSPost2010PropOp31
 70
     1
102
RTVSPost2010Prop32
280
     0
102
RTVSPost2010PropOp32
 70
     1
102
RTVSPost2010Prop33
280
     0
102
RTVSPost2010PropOp33
 70
     1
102
RTVSPost2010Prop34
280
     0
102
RTVSPost2010PropOp34
 70
     1
102
RTVSPost2010Prop35
280
     0
102
RTVSPost2010PropOp35
 70
     1
102
RTVSPost2010Prop36
280
     0
102
RTVSPost2010PropOp36
 70
     1
102
RTVSPost2010Prop37
 90
       50
102
RTVSPost2010PropOp37
 70
     1
102
RTVSPost2010Prop38
140
0.0
102
RTVSPost2010PropOp38
 70
     1
102
RTVSPost2010Prop39
140
1.0
102
RTVSPost2010PropOp39
 70
     1
102
RTVSPost2010Prop40
 90
        0
102
RTVSPost2010PropOp40
 70
     1
102
RTVSPost2010Prop41ColorIndex
 90
       18
102
RTVSPost2010Prop41ColorRGB
 90
        0
102
RTVSPost2010PropOp41
 70
     1
102
RTVSPost2010Prop42
 90
       50
102
RTVSPost2010PropOp42
 70
     1
102
RTVSPost2010Prop43
 90
        3
102
RTVSPost2010PropOp43
 70
     1
102
RTVSPost2010Prop44ColorIndex
 90
        5
102
RTVSPost2010Prop44ColorRGB
 90
      255
102
RTVSPost2010PropOp44
 70
     1
102
RTVSPost2010Prop45
280
     0
102
RTVSPost2010PropOp45
 70
     1
102
RTVSPost2010Prop46
 90
       50
102
RTVSPost2010PropOp46
 70
     1
102
RTVSPost2010Prop47
 90
       50
102
RTVSPost2010PropOp47
 70
     1
102
RTVSPost2010Prop48
 90
       50
102
RTVSPost2010PropOp48
 70
     1
102
RTVSPost2010Prop49
280
     0
102
RTVSPost2010PropOp49
 70
     1
102
RTVSPost2010Prop50
 90
       50
102
RTVSPost2010PropOp50
 70
     1
102
RTVSPost2010Prop51ColorIndex
 90
      256
102
RTVSPost2010Prop51ColorRGB
 90
-16777216
102
RTVSPost2010PropOp51
 70
     0
102
RTVSPost2010Prop52
140
1.0
102
RTVSPost2010PropOp52
 70
     0
102
RTVSPost2010Prop53
 90
        2
102
RTVSPost2010PropOp53
 70
     1
102
RTVSPost2010Prop54
  1
strokes_ogs.tif
102
RTVSPost2010PropOp54
 70
     1
102
RTVSPost2010Prop55
280
     0
102
RTVSPost2010PropOp55
 70
     1
102
RTVSPost2010Prop56
140
1.0
102
RTVSPost2010PropOp56
 70
     1
102
RTVSPost2010Prop57
140
1.0
102
RTVSPost2010PropOp57
 70
     1
102
RTVSPropertyOp0
 70
     1
102
RTVSPropertyOp1
 70
     1
102
RTVSPropertyOp2
 70
     1
102
RTVSPropertyOp3
 70
     1
102
RTVSPropertyOp4
 70
     1
102
RTVSPropertyOp5
 70
     1
102
RTVSPropertyOp6
 70
     1
102
RTVSPropertyOp7
 70
     1
102
RTVSPropertyOp8
 70
     1
102
RTVSPropertyOp9
 70
     1
102
RTVSPropertyOp10
 70
     1
102
RTVSPropertyOp11
 70
     1
102
RTVSPropertyOp12
 70
     1
102
RTVSPropertyOp13
 70
     1
102
RTVSPropertyOp14
 70
     1
102
RTVSPropertyOp15
 70
     1
102
RTVSPropertyOp16
 70
     1
102
RTVSPropertyOp17
 70
     1
102
RTVSPropertyOp18
 70
     1
102
RTVSPropertyOp19
 70
     1
102
RTVSPropertyOp20
 70
     1
102
RTVSPropertyOp21
 70
     1
102
RTVSPropertyOp22
 70
     1
102
RTVSPropertyOp23
 70
     1
102
RTVSPropertyOp24
 70
     1
102
RTVSPropertyOp25
 70
     1
102
RTVSPropertyOp26
 70
     1
102
RTVSPropertyOp27
 70
     1
102
RTVSPropertyOp28
 70
     1
102
RTVSPropertyOp29
 70
     1
102
RTVSPropertyOp30
 70
     1
102
RTVSPropertyOp31
 70
     1
102
RTVSPropertyOp32
 70
     1
102
RTVSPropertyOp33
 70
     1
102
RTVSPropertyOp34
 70
     1
102
RTVSPropertyOp35
 70
     1
102
RTVSPropertyOp36
 70
     1
102
RTVSPropertyOp37
 70
     1
102
RTVSPropertyOp38
 70
     1
102
RTVSPropertyOp39
 70
     1
102
RTVSPropertyOp40
 70
     1
102
RTVSPropertyOp41
 70
     1
102
RTVSPropertyOp42
 70
     1
102
RTVSPropertyOp43
 70
     1
102
RTVSPropertyOp44
 70
     1
102
RTVSPropertyOp45
 70
     1
102
RTVSPropertyOp46
 70
     1
102
RTVSPropertyOp47
 70
     1
102
RTVSPropertyOp48
 70
     1
102
RTVSPropertyOp49
 70
     1
102
RTVSPropertyOp50
 70
     1
102
RTVSPropertyOp51
 70
     0
102
RTVSPropertyOp52
 70
     0
102
RTVSPropertyOp53
 70
     1
102
RTVSPropertyOp54
 70
     1
102
RTVSPropertyOp55
 70
     1
102
RTVSPropertyOp56
 70
     1
102
RTVSPropertyOp57
 70
     1
102
RTVSPropertyOp58
 70
     1
102
RTVSPropertyOp59
 70
     1
102
RTVSPropertyOp60
 70
     1
102
RTVSPropertyOp61
 70
     1
102
RTVSPropertyOp62
 70
     1
  0
XRECORD
  5
10404
102
{ACAD_REACTORS
330
10403
102
}
330
10403
100
AcDbXrecord
280
     1
102
RTVSPost2010Prop28
280
     0
102
RTVSPost2010PropOp28
 70
     1
102
RTVSPost2010Prop29
280
     1
102
RTVSPost2010PropOp29
 70
     1
102
RTVSPost2010Prop30
280
     1
102
RTVSPost2010PropOp30
 70
     1
102
RTVSPost2010Prop31
280
     0
102
RTVSPost2010PropOp31
 70
     1
102
RTVSPost2010Prop32
280
     0
102
RTVSPost2010PropOp32
 70
     1
102
RTVSPost2010Prop33
280
     0
102
RTVSPost2010PropOp33
 70
     1
102
RTVSPost2010Prop34
280
     0
102
RTVSPost2010PropOp34
 70
     1
102
RTVSPost2010Prop35
280
     0
102
RTVSPost2010PropOp35
 70
     1
102
RTVSPost2010Prop36
280
     0
102
RTVSPost2010PropOp36
 70
     1
102
RTVSPost2010Prop37
 90
       50
102
RTVSPost2010PropOp37
 70
     1
102
RTVSPost2010Prop38
140
0.0
102
RTVSPost2010PropOp38
 70
     1
102
RTVSPost2010Prop39
140
1.0
102
RTVSPost2010PropOp39
 70
     1
102
RTVSPost2010Prop40
 90
        0
102
RTVSPost2010PropOp40
 70
     1
102
RTVSPost2010Prop41ColorIndex
 90
       18
102
RTVSPost2010Prop41ColorRGB
 90
        0
102
RTVSPost2010PropOp41
 70
     1
102
RTVSPost2010Prop42
 90
       50
102
RTVSPost2010PropOp42
 70
     1
102
RTVSPost2010Prop43
 90
        3
102
RTVSPost2010PropOp43
 70
     1
102
RTVSPost2010Prop44ColorIndex
 90
        5
102
RTVSPost2010Prop44ColorRGB
 90
      255
102
RTVSPost2010PropOp44
 70
     1
102
RTVSPost2010Prop45
280
     0
102
RTVSPost2010PropOp45
 70
     1
102
RTVSPost2010Prop46
 90
       50
102
RTVSPost2010PropOp46
 70
     1
102
RTVSPost2010Prop47
 90
       50
102
RTVSPost2010PropOp47
 70
     1
102
RTVSPost2010Prop48
 90
       50
102
RTVSPost2010PropOp48
 70
     1
102
RTVSPost2010Prop49
280
     0
102
RTVSPost2010PropOp49
 70
     1
102
RTVSPost2010Prop50
 90
       50
102
RTVSPost2010PropOp50
 70
     1
102
RTVSPost2010Prop51ColorIndex
 90
      256
102
RTVSPost2010Prop51ColorRGB
 90
-16777216
102
RTVSPost2010PropOp51
 70
     0
102
RTVSPost2010Prop52
140
1.0
102
RTVSPost2010PropOp52
 70
     0
102
RTVSPost2010Prop53
 90
        2
102
RTVSPost2010PropOp53
 70
     1
102
RTVSPost2010Prop54
  1
strokes_ogs.tif
102
RTVSPost2010PropOp54
 70
     1
102
RTVSPost2010Prop55
280
     0
102
RTVSPost2010PropOp55
 70
     1
102
RTVSPost2010Prop56
140
1.0
102
RTVSPost2010PropOp56
 70
     1
102
RTVSPost2010Prop57
140
1.0
102
RTVSPost2010PropOp57
 70
     1
102
RTVSPropertyOp0
 70
     1
102
RTVSPropertyOp1
 70
     1
102
RTVSPropertyOp2
 70
     1
102
RTVSPropertyOp3
 70
     1
102
RTVSPropertyOp4
 70
     1
102
RTVSPropertyOp5
 70
     1
102
RTVSPropertyOp6
 70
     1
102
RTVSPropertyOp7
 70
     1
102
RTVSPropertyOp8
 70
     1
102
RTVSPropertyOp9
 70
     1
102
RTVSPropertyOp10
 70
     1
102
RTVSPropertyOp11
 70
     1
102
RTVSPropertyOp12
 70
     1
102
RTVSPropertyOp13
 70
     1
102
RTVSPropertyOp14
 70
     1
102
RTVSPropertyOp15
 70
     1
102
RTVSPropertyOp16
 70
     1
102
RTVSPropertyOp17
 70
     1
102
RTVSPropertyOp18
 70
     1
102
RTVSPropertyOp19
 70
     1
102
RTVSPropertyOp20
 70
     1
102
RTVSPropertyOp21
 70
     1
102
RTVSPropertyOp22
 70
     1
102
RTVSPropertyOp23
 70
     1
102
RTVSPropertyOp24
 70
     1
102
RTVSPropertyOp25
 70
     1
102
RTVSPropertyOp26
 70
     1
102
RTVSPropertyOp27
 70
     1
102
RTVSPropertyOp28
 70
     1
102
RTVSPropertyOp29
 70
     1
102
RTVSPropertyOp30
 70
     1
102
RTVSPropertyOp31
 70
     1
102
RTVSPropertyOp32
 70
     1
102
RTVSPropertyOp33
 70
     1
102
RTVSPropertyOp34
 70
     1
102
RTVSPropertyOp35
 70
     1
102
RTVSPropertyOp36
 70
     1
102
RTVSPropertyOp37
 70
     1
102
RTVSPropertyOp38
 70
     1
102
RTVSPropertyOp39
 70
     1
102
RTVSPropertyOp40
 70
     1
102
RTVSPropertyOp41
 70
     1
102
RTVSPropertyOp42
 70
     1
102
RTVSPropertyOp43
 70
     1
102
RTVSPropertyOp44
 70
     1
102
RTVSPropertyOp45
 70
     1
102
RTVSPropertyOp46
 70
     1
102
RTVSPropertyOp47
 70
     1
102
RTVSPropertyOp48
 70
     1
102
RTVSPropertyOp49
 70
     1
102
RTVSPropertyOp50
 70
     1
102
RTVSPropertyOp51
 70
     0
102
RTVSPropertyOp52
 70
     0
102
RTVSPropertyOp53
 70
     1
102
RTVSPropertyOp54
 70
     1
102
RTVSPropertyOp55
 70
     1
102
RTVSPropertyOp56
 70
     1
102
RTVSPropertyOp57
 70
     1
102
RTVSPropertyOp58
 70
     1
102
RTVSPropertyOp59
 70
     1
102
RTVSPropertyOp60
 70
     1
102
RTVSPropertyOp61
 70
     1
102
RTVSPropertyOp62
 70
     1
  0
XRECORD
  5
1040C
102
{ACAD_REACTORS
330
1040B
102
}
330
1040B
100
AcDbXrecord
280
     1
102
RTVSPost2010Prop28
280
     0
102
RTVSPost2010PropOp28
 70
     1
102
RTVSPost2010Prop29
280
     1
102
RTVSPost2010PropOp29
 70
     1
102
RTVSPost2010Prop30
280
     1
102
RTVSPost2010PropOp30
 70
     1
102
RTVSPost2010Prop31
280
     0
102
RTVSPost2010PropOp31
 70
     1
102
RTVSPost2010Prop32
280
     0
102
RTVSPost2010PropOp32
 70
     1
102
RTVSPost2010Prop33
280
     0
102
RTVSPost2010PropOp33
 70
     1
102
RTVSPost2010Prop34
280
     0
102
RTVSPost2010PropOp34
 70
     1
102
RTVSPost2010Prop35
280
     0
102
RTVSPost2010PropOp35
 70
     1
102
RTVSPost2010Prop36
280
     0
102
RTVSPost2010PropOp36
 70
     1
102
RTVSPost2010Prop37
 90
       50
102
RTVSPost2010PropOp37
 70
     1
102
RTVSPost2010Prop38
140
0.0
102
RTVSPost2010PropOp38
 70
     1
102
RTVSPost2010Prop39
140
1.0
102
RTVSPost2010PropOp39
 70
     1
102
RTVSPost2010Prop40
 90
        0
102
RTVSPost2010PropOp40
 70
     1
102
RTVSPost2010Prop41ColorIndex
 90
       18
102
RTVSPost2010Prop41ColorRGB
 90
        0
102
RTVSPost2010PropOp41
 70
     1
102
RTVSPost2010Prop42
 90
       50
102
RTVSPost2010PropOp42
 70
     1
102
RTVSPost2010Prop43
 90
        3
102
RTVSPost2010PropOp43
 70
     1
102
RTVSPost2010Prop44ColorIndex
 90
        5
102
RTVSPost2010Prop44ColorRGB
 90
      255
102
RTVSPost2010PropOp44
 70
     1
102
RTVSPost2010Prop45
280
     0
102
RTVSPost2010PropOp45
 70
     1
102
RTVSPost2010Prop46
 90
       50
102
RTVSPost2010PropOp46
 70
     1
102
RTVSPost2010Prop47
 90
       50
102
RTVSPost2010PropOp47
 70
     1
102
RTVSPost2010Prop48
 90
       50
102
RTVSPost2010PropOp48
 70
     1
102
RTVSPost2010Prop49
280
     0
102
RTVSPost2010PropOp49
 70
     1
102
RTVSPost2010Prop50
 90
       50
102
RTVSPost2010PropOp50
 70
     1
102
RTVSPost2010Prop51ColorIndex
 90
      256
102
RTVSPost2010Prop51ColorRGB
 90
-16777216
102
RTVSPost2010PropOp51
 70
     0
102
RTVSPost2010Prop52
140
1.0
102
RTVSPost2010PropOp52
 70
     0
102
RTVSPost2010Prop53
 90
        2
102
RTVSPost2010PropOp53
 70
     1
102
RTVSPost2010Prop54
  1
strokes_ogs.tif
102
RTVSPost2010PropOp54
 70
     1
102
RTVSPost2010Prop55
280
     0
102
RTVSPost2010PropOp55
 70
     1
102
RTVSPost2010Prop56
140
1.0
102
RTVSPost2010PropOp56
 70
     1
102
RTVSPost2010Prop57
140
1.0
102
RTVSPost2010PropOp57
 70
     1
102
RTVSPropertyOp0
 70
     1
102
RTVSPropertyOp1
 70
     1
102
RTVSPropertyOp2
 70
     1
102
RTVSPropertyOp3
 70
     1
102
RTVSPropertyOp4
 70
     1
102
RTVSPropertyOp5
 70
     1
102
RTVSPropertyOp6
 70
     1
102
RTVSPropertyOp7
 70
     1
102
RTVSPropertyOp8
 70
     1
102
RTVSPropertyOp9
 70
     1
102
RTVSPropertyOp10
 70
     1
102
RTVSPropertyOp11
 70
     1
102
RTVSPropertyOp12
 70
     1
102
RTVSPropertyOp13
 70
     1
102
RTVSPropertyOp14
 70
     1
102
RTVSPropertyOp15
 70
     1
102
RTVSPropertyOp16
 70
     1
102
RTVSPropertyOp17
 70
     1
102
RTVSPropertyOp18
 70
     1
102
RTVSPropertyOp19
 70
     1
102
RTVSPropertyOp20
 70
     1
102
RTVSPropertyOp21
 70
     1
102
RTVSPropertyOp22
 70
     1
102
RTVSPropertyOp23
 70
     1
102
RTVSPropertyOp24
 70
     1
102
RTVSPropertyOp25
 70
     1
102
RTVSPropertyOp26
 70
     1
102
RTVSPropertyOp27
 70
     1
102
RTVSPropertyOp28
 70
     1
102
RTVSPropertyOp29
 70
     1
102
RTVSPropertyOp30
 70
     1
102
RTVSPropertyOp31
 70
     1
102
RTVSPropertyOp32
 70
     1
102
RTVSPropertyOp33
 70
     1
102
RTVSPropertyOp34
 70
     1
102
RTVSPropertyOp35
 70
     1
102
RTVSPropertyOp36
 70
     1
102
RTVSPropertyOp37
 70
     1
102
RTVSPropertyOp38
 70
     1
102
RTVSPropertyOp39
 70
     1
102
RTVSPropertyOp40
 70
     1
102
RTVSPropertyOp41
 70
     1
102
RTVSPropertyOp42
 70
     1
102
RTVSPropertyOp43
 70
     1
102
RTVSPropertyOp44
 70
     1
102
RTVSPropertyOp45
 70
     1
102
RTVSPropertyOp46
 70
     1
102
RTVSPropertyOp47
 70
     1
102
RTVSPropertyOp48
 70
     1
102
RTVSPropertyOp49
 70
     1
102
RTVSPropertyOp50
 70
     1
102
RTVSPropertyOp51
 70
     0
102
RTVSPropertyOp52
 70
     0
102
RTVSPropertyOp53
 70
     1
102
RTVSPropertyOp54
 70
     1
102
RTVSPropertyOp55
 70
     1
102
RTVSPropertyOp56
 70
     1
102
RTVSPropertyOp57
 70
     1
102
RTVSPropertyOp58
 70
     1
102
RTVSPropertyOp59
 70
     1
102
RTVSPropertyOp60
 70
     1
102
RTVSPropertyOp61
 70
     1
102
RTVSPropertyOp62
 70
     1
  0
DICTIONARY
  5
10417
330
1028A
100
AcDbDictionary
280
     1
281
     1
  3
ACAD_XREC_ROUNDTRIP
360
10418
  0
XRECORD
  5
10418
102
{ACAD_REACTORS
330
10417
102
}
330
10417
100
AcDbXrecord
280
     1
102
SHADEPLOT
 70
     0
102
SHADEPLOTRESLEVEL
 70
     2
102
SHADEPLOTCUSTOMDPI
 70
   300
  0
ENDSEC
  0
EOF
